Скачать бесплатно Прощай, Америка! (1951) DVDRip от New-Team на пк





Производство: Мосфильм

Видео: 704x528 (4:3), 25 fps, XviD ~ 2030 kbps avg, 0.218 bit/pixel
Жанр: политический памфлет
Раздача от:
MediaInfo
Общее
Полное имя : Proshhay,Amerika!1951.DVDRip_[New-team]_by_AVP_Studio.avi
Формат : AVI
Формат/Информация : Audio Video Interleave
Размер файла : 1,09 Гбайт
Продолжительность : 1 ч. 9 м.
Общий поток : 2231 Кбит/сек
Программа кодирования : VirtualDubMod 1.5.10.3 | www.virtualdub-fr.org || (build 2550/release)
Библиотека кодирования : VirtualDubMod build 2550/release

Видео
Идентификатор : 0
Формат : MPEG-4 Visual
Профиль формата : Advanced Simple@L5
Параметр BVOP формата : 1
Параметр QPel формата : Нет
Параметр GMC формата : Без точки перехода
Параметр матрицы формата : Выборочная
Идентификатор кодека : XVID
Идентификатор кодека/Подсказка : XviD
Продолжительность : 1 ч. 9 м.
Битрейт : 2030 Кбит/сек
Ширина : 704 пикселя
Высота : 528 пикселей
Соотношение сторон : 4:3
Частота кадров : 25,000 кадров/сек
Цветовое пространство : YUV
Субдискретизация насыщенности : 4:2:0
Битовая глубина : 8 бит
Тип развёртки : Прогрессивная
Метод сжатия : С потерями
Бит/(Пиксели*Кадры) : 0.218
Размер потока : 1015 Мбайт (91%)
Библиотека кодирования : XviD 1.2.1 (UTC 2008-12-04)

Аудио
Идентификатор : 1
Формат : AC-3
Формат/Информация : Audio Coding 3
Расширение режима : CM (complete main)
Параметр Endianness формата : Big
Идентификатор кодека : 2000
Продолжительность : 1 ч. 9 м.
Вид битрейта : Постоянный
Битрейт : 192 Кбит/сек
Каналы : 2 канала
Расположение каналов : Front: L R
Частота : 48,0 КГц
Метод сжатия : С потерями
Размер потока : 96,0 Мбайт (9%)
Выравнивание : Разделение по промежуткам
Продолжительность промежутка : 40 мс. (1,00 видеокадр)
Время предзагрузки промежутка : 500 мс

Скриншоты

ЗалилAVPStudio ОценкаНикто ещё не поставил оценку КатегорияНаши фильмы Раздают2 Качают0 Сидер замечен14-07-2019 18:19:13 (2 минуты назад) Добавлен06-07-2016 13:46:26 (37 месяцев назад) Размер1.09 GB (1170137088 Bytes)Страна: СССР
Режиссер: Александр Довженко, Юлия Солнцева

В ролях:
Лилия Гриценко, Николай Гриценко, Александр Полинский, Григорий Кириллов, Вячеслав Гостинский, Никита Кондратьев, Юрий Любимов, Янис Осис, Людмила Шагалова, Григорий Шпигель, Вера Орлова...
DVDRip
Источник:Не требуется
Год выпуска: 1951
Оригинальная аудиодорожка: русский

Полный список актёров

Перевод:DVD5 R5
Формат видео: AVI

Продолжительность: 01:09:55

Аудио: 48 kHz, Dolby Digital AC3 2.0, 192 kbps

Cубтитры: нет
Качество видео:Описание:
В основе сценария последней незаконченной режиссерской работы Александра Петровича Довженко - книга 1949 года американской журналистки Аннабеллы Бюкар "Правда об американских дипломатах", разоблачающая нравы в американском посольстве в Москве.



Если у вас возникли проблемы с закачкой Прощай, Америка! (1951) DVDRip от New-Team, перейдите по ссылке - там вы найдете решение своей проблемы.

Категория: Наши фильмы

 

Скачать бесплатно Прощай, Америка! (1951) DVDRip от New-Team на пк

 

Информация
Посетители, находящиеся в группе Гости, не могут оставлять комментарии к данной публикации.
 
 
Скачать бесплатно Прощай, Америка! (1951) DVDRip от New-Team на пкCopyright © 2019 .