Скачать бесплатно Супермакс / Supermax [S01] (2016) HDTVRip 720p | L2 на пк






Видео: 1280x720 (16:9), 29.970 fps, MPEG-4 AVC ~3 254 kbps avg
Качество: HDTVRip 720p
Год выпуска: 2016
Продолжительность: 12х ~00:40:00

Авторы сценария: Жозе Алваренга мл., Маркаль Акино, Фернандо Бонасси, Каролина Котшо

Дата премьеры (мир): 16 сентября 2016



Media InfoОписание: Двеннадцать человек отобраны для уникального реалити-шоу: 3 месяца в тюрьме супермаксимальной безопасности посреди лесов Амазонии и никакого контакта с внешним миром. Главный приз — 2 миллиона реалов. Всех участников объединяет то, что у них были или есть проблемы с правосудием. Однако со временем, казалось бы, совершенно обыкновенная телепередача превращается в нечто более жуткое и пугающее...



В ролях: Равел Андради, Бруно Белармино, Педро Биал, Эром Кордейру, Вания де Брито, Харильдо Деда, Руй Рикардо Диас, Клео Пирес, Ф. Гугли

Страна: Бразилия
Перевод: Любительский (двухголосый, закадровый) |Аудио: 48.0 kHz, Advanced Audio Codec LC, 2/0 (L,R) ch, ~128 kbps

Супермакс /Формат: МР4
Производство: Central Globo de Produção
Аудио кодек: AAC
Сезон: 1
Режиссер: Жозе Алваренга мл., Луис Энрике Кампос
Видео кодек: AVC
Avebrasil
Субтитры: нет

Жанр: приключения, ужасы, триллер
Supermax

General
Полное имя : Супер Макс - 01.mp4
Формат : MPEG-4
Профиль формата : Base Media / Version 2
Идентификатор кодека : mp42 (mp42/isom)
Размер файла : 1014 Мбайт
Продолжительность : 41 м.
Режим общего битрейта : Переменный
Общий поток : 3387 Кбит/сек
Дата кодирования : UTC 2016-09-21 17:41:34
Дата пометки : UTC 2016-09-21 17:41:34

Видео
Идентификатор : 2
Формат : AVC
Формат/Информация : Advanced Video Codec
Профиль формата : High@L4
Параметр CABAC формата : Да
Параметр ReFrames формата : 2 кадра
Параметр GOP формата : M=2, N=15
Идентификатор кодека : avc1
Идентификатор кодека/Информация : Advanced Video Coding
Продолжительность : 41 м.
Вид битрейта : Переменный
Битрейт : 3254 Кбит/сек
Максимальный битрейт : 4000 Кбит/сек
Ширина : 1280 пикселей
Высота : 720 пикселей
Соотношение сторон : 16:9
Режим частоты кадров : Постоянный
Частота кадров : 29,970 (30000/1001) кадров/сек
Цветовое пространство : YUV
Субдискретизация насыщенности : 4:2:0
Битовая глубина : 8 бит
Тип развёртки : Прогрессивная
Бит/(Пиксели*Кадры) : 0.118
Размер потока : 974 Мбайт (96%)
Язык : English
Дата кодирования : UTC 2016-09-21 17:41:34
Дата пометки : UTC 2016-09-21 17:41:34

Аудио
Идентификатор : 1
Формат : AAC
Формат/Информация : Advanced Audio Codec
Профиль формата : LC
Идентификатор кодека : 40
Продолжительность : 41 м.
Вид битрейта : Постоянный
Битрейт : 128 Кбит/сек
Каналы : 2 канала
Расположение каналов : Front: L R
Частота : 48,0 КГц
Частота кадров : 46,875 кадров/сек (1024 spf)
Метод сжатия : С потерями
Размер потока : 38,3 Мбайт (4%)
Язык : English
Дата кодирования : UTC 2016-09-21 17:41:34
Дата пометки : UTC 2016-09-21 17:41:34Скриншоты ЗалилZha-4k-e Оценка6.5 из 10 (2 голосов, самая низкая оценка - 3, самая высокая - 10) КатегорияЗарубежные сериалы Раздают1 Качают0 Сидер замечен28-05-2019 1:19:11 (2 месяца назад) Добавлен31-01-2017 10:07:13 (30 месяцев назад) Размер12.32 GB (13233789205 Bytes)

Если у вас возникли проблемы с закачкой Супермакс / Supermax [S01] (2016) HDTVRip 720p | L2, перейдите по ссылке - там вы найдете решение своей проблемы.

Категория: Зарубежные сериалы

 

Скачать бесплатно Супермакс / Supermax [S01] (2016) HDTVRip 720p | L2 на пк

 

Информация
Посетители, находящиеся в группе Гости, не могут оставлять комментарии к данной публикации.
 
 
Скачать бесплатно Супермакс / Supermax [S01] (2016) HDTVRip 720p | L2 на пкCopyright © 2019 .