Скачать бесплатно Грязные игры / The Company You Keep (2012) BDRip-AVC от Rulya74 на пк




Продолжительность: 02:01:48
Жанр: триллер, драма
Звук: 48 kHz, AC3 Dolby Digital, 2 ch, ~192.00 kbps
Год выхода: 2012
Режиссер: Роберт Редфорд

Грязные игры / The Company You Keep (2012) BDRip-AVC



Информация о фильме
Кодек: x.264
В ролях: Анна Кендрик, Ричард Дженкинс, Роберт Редфорд, Шайа ЛаБаф, Джули Кристи, Сэм Эллиотт, Джеки Иванко, Брендан Глисон, Терренс Ховард, Брит Марлинг...

Перевод: Профессиональный (многоголосый закадровый)

&

MediaInfoОбщее
Уникальный идентификатор : 172098343457021281208327442640532330393 (0x8178EF701ACC34B08029B92A3D1ED799)
Полное имя : D:The Company You Keep.2012.BDRip-AVC.mkv
Формат : Matroska
Версия формата : Version 4 / Version 2
Размер файла : 1,37 Гбайт
Продолжительность : 2 ч. 1 м.
Общий поток : 1614 Кбит/сек
Название фильма : Грязные игры / The Company You Keep (2012) BDRip-AVC rip by Rulya74
Дата кодирования : UTC 2014-01-11 13:12:35
Программа кодирования : mkvmerge v6.6.0 ('The Edge Of The In Between') built on Dec 1 2013 17:55:00
Библиотека кодирования : libebml v1.3.0 + libmatroska v1.4.1

Видео
Идентификатор : 1
Формат : AVC
Формат/Информация : Advanced Video Codec
Профиль формата : High@L4.1
Параметр CABAC формата : Да
Параметр ReFrames формата : 9 кадров
Идентификатор кодека : V_MPEG4/ISO/AVC
Продолжительность : 2 ч. 1 м.
Битрейт : 1422 Кбит/сек
Ширина : 928 пикселей
Высота : 384 пикселя
Соотношение сторон : 2,40:1
Режим частоты кадров : Постоянный
Частота кадров : 23,976 кадра/сек
Цветовое пространство : YUV
Субдискретизация насыщенности : 4:2:0
Битовая глубина : 8 бит
Тип развёртки : Прогрессивная
Бит/(Пиксели*Кадры) : 0.166
Размер потока : 1,18 Гбайт (86%)
Библиотека кодирования : x264 core 138 r2358 9e941d1
Настройки программы : cabac=1 / ref=9 / deblock=1:-2:-1 / analyse=0x3:0x2 / me=umh / subme=11 / psy=1 / psy_rd=1.00:0.00 / mixed_ref=1 / me_range=48 / chroma_me=1 / trellis=2 / 8x8dct=1 / cqm=0 / deadzone=21,11 / fast_pskip=0 / chroma_qp_offset=-2 / threads=4 / lookahead_threads=1 / sliced_threads=0 / nr=0 / decimate=1 / interlaced=0 / bluray_compat=0 / constrained_intra=0 / bframes=10 / b_pyramid=2 / b_adapt=1 / b_bias=0 / direct=3 / weightb=1 / open_gop=0 / weightp=2 / keyint=240 / keyint_min=23 / scenecut=40 / intra_refresh=0 / rc_lookahead=40 / rc=2pass / mbtree=1 / bitrate=1422 / ratetol=1.0 / qcomp=0.60 / qpmin=0 / qpmax=69 / qpstep=4 / cplxblur=20.0 / qblur=0.5 / vbv_maxrate=62500 / vbv_bufsize=78125 / nal_hrd=none / ip_ratio=1.40 / aq=1:1.00
Default : Да
Forced : Нет

Аудио
Идентификатор : 2
Формат : AC-3
Формат/Информация : Audio Coding 3
Расширение режима : CM (complete main)
Параметр Endianness формата : Big
Идентификатор кодека : A_AC3
Продолжительность : 2 ч. 1 м.
Вид битрейта : Постоянный
Битрейт : 192 Кбит/сек
Каналы : 2 канала
Расположение каналов : Front: L R
Частота : 48,0 КГц
Битовая глубина : 16 бит
Метод сжатия : С потерями
Размер потока : 167 Мбайт (12%)
Заголовок : Профессиональный (многоголосый закадровый)
Язык : Russian
Default : Да
Forced : Нет

Текст
Идентификатор : 3
Формат : UTF-8
Идентификатор кодека : S_TEXT/UTF8
Идентификатор кодека/Информация : UTF-8 Plain Text
Язык : English
Default : Да
Forced : Нет

Меню
00:00:00.000 : :Chapter 01
00:09:54.135 : :Chapter 02
00:20:01.825 : :Chapter 03
00:31:56.915 : :Chapter 04
00:41:11.802 : :Chapter 05
00:51:55.904 : :Chapter 06
01:01:03.076 : :Chapter 07
01:12:05.404 : :Chapter 08
01:20:54.891 : :Chapter 09
01:31:03.583 : :Chapter 10
01:41:38.175 : :Chapter 11
01:51:43.655 : :Chapter 12Скриншоты
ЗалилВидео: 928x384 (2,40:1), 23,976 fps, 1422 kbps, 0.166 bit/pixel
О фильме: В центре истории вдовец и отец-одиночка Джим Грант — бывший активист Weathermen, разыскиваемый за ограбление банка и убийство. Более тридцати лет он скрывался от ФБР под видом адвоката, однако, после того как его истинную личность раскрывает молодой репортёр Бен Шепард, Гранту приходится пуститься в бега. Он должен найти свою бывшую любовницу Мими, человека, который может очистить его имя, прежде чем ФБР поймают его. В противном случае он потеряет всё, в том числе свою 11-летнюю дочь Изабел.



Rulya74 Оценка7 из 10 (1 голосов, самая низкая оценка - 7, самая высокая - 7) КатегорияЗарубежные фильмы Раздают0 Качают0 Сидер замечен25-05-2019 16:19:12 (2 месяца назад) Добавлен11-01-2014 19:33:07 (67 месяцев назад) Размер1.37 GB (1474364714 Bytes)Название: Грязные игры
Страна: США
Оригинальное название: The Company You Keep
Качество: BDRip-AVC
Субтитры: Английские (отключаемые)

Если у вас возникли проблемы с закачкой Грязные игры / The Company You Keep (2012) BDRip-AVC от Rulya74, перейдите по ссылке - там вы найдете решение своей проблемы.

Категория: Зарубежные фильмы

 

Скачать бесплатно Грязные игры / The Company You Keep (2012) BDRip-AVC от Rulya74 на пк

 

Информация
Посетители, находящиеся в группе Гости, не могут оставлять комментарии к данной публикации.
 
 
Скачать бесплатно Грязные игры / The Company You Keep (2012) BDRip-AVC от Rulya74 на пкCopyright © 2019 .