Скачать бесплатно Красавица и чудовище / Beauty and the Beast (2017) BDRip-AVC от ExKinoRay | Лицензия на пк







Информация о фильме
Перевод: Дублированный | Лицензия
Описание: Старая-старая сказка, горячо любимая своими зрителями, вновь возвращается на экраны ожившей легендой в виде ремейка анимационного диснеевского фильма по мотивам сказки Жанны-Мари Лепренс де Бомон. Хорошо известный всем сюжет о юной добросердечной девушке Белль, полюбившей заколдованного принца в обличии чудовища за красоту его души оформлен в виде яркого, красивого, насыщенного музыкальными номерами костюмированного фильма. Добавьте сюда отнюдь не бюджетный голливудский размах, спецэффекты компьютерной графики и ожидаемые рекордные сборы, а также Эмму Уотсон в главной роли и решитесь на просмотр - хотя бы для того, чтобы сравнить предлагаемый продукт с оригиналом.




Продолжительность: 02:09:16
Качество: BDRip-AVC
Режиссер: Билл Кондон
Жанр: Мюзикл, фэнтези, мелодрама, семейный
Страна: США
Enigma2010 Оценка10 из 10 (1 голосов, самая низкая оценка - 10, самая высокая - 10) КатегорияЗарубежные фильмы Раздают3 Качают2 Сидер замечен14-07-2019 15:19:12 (2 минуты назад) Добавлен24-06-2017 14:56:59 (25 месяцев назад) Размер2.96 GB (3173174352 Bytes)Видео: AVC, 1024х428 (2.40:1), 2374 kbps, 23,976 fps, 0,226 bpp
Навигация по главам: есть


MIGeneral
Unique ID : 176245853666909945079845970165269554480 (0x8497B77AA45DD8E0BBF1D58F08F46530)
Complete name : D:Beauty.and.the.Beast.2017.BDRip.AVC.ExKinoRay.mkv
Format : Matroska
Format version : Version 2
File size : 2.96 GiB
Duration : 2 h 9 min
Overall bit rate : 3 273 kb/s
Movie name : Beauty and the Beast (2017) from ExKinoRay
Encoded date : UTC 2017-06-24 05:46:28
Writing application : mkvmerge v5.6.0 ('Kenya Kane') built on May 27 2012 16:44:04
Writing library : libebml v1.2.3 + libmatroska v1.3.0

Video
ID : 1
Format : AVC
Format/Info : Advanced Video Codec
Format profile : High@L4.1
Format settings, CABAC : Yes
Format settings, ReFrames : 12 frames
Codec ID : V_MPEG4/ISO/AVC
Duration : 2 h 9 min
Bit rate : 2 374 kb/s
Width : 1 024 pixels
Height : 428 pixels
Display aspect ratio : 2.40:1
Frame rate mode : Constant
Frame rate : 23.976 (23976/1000) FPS
Color space : YUV
Chroma subsampling : 4:2:0
Bit depth : 8 bits
Scan type : Progressive
Bits/(Pixel*Frame) : 0.226
Stream size : 2.09 GiB (71%)
Title : Enigma
Writing library : x264 core 144 r2525 40bb568
Encoding settings : cabac=1 / ref=12 / deblock=1:-3:-3 / analyse=0x3:0x113 / me=umh / subme=10 / psy=1 / psy_rd=1.00:0.06 / mixed_ref=1 / me_range=32 / chroma_me=1 / trellis=2 / 8x8dct=1 / cqm=0 / deadzone=21,11 / fast_pskip=1 / chroma_qp_offset=-3 / threads=12 / lookahead_threads=3 / sliced_threads=0 / nr=0 / decimate=0 / interlaced=0 / bluray_compat=0 / constrained_intra=0 / bframes=11 / b_pyramid=2 / b_adapt=2 / b_bias=0 / direct=3 / weightb=1 / open_gop=0 / weightp=2 / keyint=240 / keyint_min=23 / scenecut=40 / intra_refresh=0 / rc_lookahead=40 / rc=2pass / mbtree=0 / bitrate=2374 / ratetol=1.0 / qcomp=0.65 / qpmin=0 / qpmax=51 / qpstep=4 / cplxblur=20.0 / qblur=0.5 / vbv_maxrate=50000 / vbv_bufsize=62500 / nal_hrd=none / filler=0 / ip_ratio=1.40 / pb_ratio=1.30 / aq=3:0.80
Language : English
Default : Yes
Forced : No
Color range : Limited
Color primaries : BT.709
Transfer characteristics : BT.709
Matrix coefficients : BT.709

Audio #1
ID : 2
Format : AC-3
Format/Info : Audio Coding 3
Mode extension : CM (complete main)
Format settings, Endianness : Big
Codec ID : A_AC3
Duration : 2 h 9 min
Bit rate mode : Constant
Bit rate : 448 kb/s
Channel(s) : 6 channels
Channel positions : Front: L C R, Side: L R, LFE
Sampling rate : 48.0 kHz
Frame rate : 31.250 FPS (1536 spf)
Compression mode : Lossy
Stream size : 414 MiB (14%)
Title : Dub (Лицензия)
Language : Russian
Default : Yes
Forced : No

Audio #2
ID : 3
Format : AC-3
Format/Info : Audio Coding 3
Mode extension : CM (complete main)
Format settings, Endianness : Big
Codec ID : A_AC3
Duration : 2 h 9 min
Bit rate mode : Constant
Bit rate : 448 kb/s
Channel(s) : 6 channels
Channel positions : Front: L C R, Side: L R, LFE
Sampling rate : 48.0 kHz
Frame rate : 31.250 FPS (1536 spf)
Compression mode : Lossy
Stream size : 414 MiB (14%)
Language : English
Default : No
Forced : No

Text #1
ID : 4
Format : UTF-8
Codec ID : S_TEXT/UTF8
Codec ID/Info : UTF-8 Plain Text
Title : Full
Language : Russian
Default : No
Forced : No

Text #2
ID : 5
Format : UTF-8
Codec ID : S_TEXT/UTF8
Codec ID/Info : UTF-8 Plain Text
Title : Full
Language : English
Default : No
Forced : No

Text #3
ID : 6
Format : UTF-8
Codec ID : S_TEXT/UTF8
Codec ID/Info : UTF-8 Plain Text
Title : Colored
Language : English
Default : No
Forced : No

Menu
00:00:00.000 : en:Chapter 01
00:04:36.276 : en:Chapter 02
00:08:06.527 : en:Chapter 03
00:11:18.260 : en:Chapter 04
00:15:21.545 : en:Chapter 05
00:18:57.386 : en:Chapter 06
00:25:05.921 : en:Chapter 07
00:31:41.566 : en:Chapter 08
00:36:08.708 : en:Chapter 09
00:42:32.258 : en:Chapter 10
00:47:01.318 : en:Chapter 11
00:54:44.990 : en:Chapter 12
01:00:43.556 : en:Chapter 13
01:07:40.931 : en:Chapter 14
01:14:38.223 : en:Chapter 15
01:19:43.695 : en:Chapter 16
01:22:02.751 : en:Chapter 17
01:28:53.369 : en:Chapter 18
01:34:01.302 : en:Chapter 19
01:38:10.175 : en:Chapter 20
01:45:23.692 : en:Chapter 21
01:49:13.964 : en:Chapter 22
01:55:54.197 : en:Chapter 23
01:58:49.497 : en:Chapter 24





В ролях: Эмма Уотсон, Дэн Стивенс, Люк Эванс, Джош Гэд, Кевин Клайн, Хэтти Морахэн, Хейдн Гвин, Джерард Хоран, Рэй Фиарон, Эван МакГрегор


Аудио 1: 48 kHz, AC3, 5.1, 448 Kbps | RUS |
Формат: MKV
Оригинальное название: Beauty and the Beast
Аудио 2: 48 kHz, AC3, 5.1, 448 Kbps | ENG |

Студия: Mandeville Films, Walt Disney Pictures
Релиз от:

Название: Красавица и чудовище
Субтитры: Русские, английские

Файл
Год выпуска: 2017
Автор релиза: Залил

Если у вас возникли проблемы с закачкой Красавица и чудовище / Beauty and the Beast (2017) BDRip-AVC от ExKinoRay | Лицензия, перейдите по ссылке - там вы найдете решение своей проблемы.

Категория: Зарубежные фильмы

 

Скачать бесплатно Красавица и чудовище / Beauty and the Beast (2017) BDRip-AVC от ExKinoRay | Лицензия на пк

 

Информация
Посетители, находящиеся в группе Гости, не могут оставлять комментарии к данной публикации.
 
 
Скачать бесплатно Красавица и чудовище / Beauty and the Beast (2017) BDRip-AVC от ExKinoRay | Лицензия на пкCopyright © 2019 .