Скачать бесплатно Белый шквал / White Squall (1996) BDRip 1080p | Р, A, P2 на пк





Информация о фильме
Год выхода: 1996
О фильме:
На грани между Жизнью и Смертью рождается мужской характер. Осенью 1960 года парусная бригантина «Альбатрос» под руководством капитана Кристофера Шелдона ушла в кругосветное плавание. Оно могло бы стать чуть ли не круизом, если бы проходило при тихой погоде. Но мальчишки, заканчивавшие на борту «Альбатроса» обучение в Океанской академии, знали, сколь обманчивым любит прикидываться океан. Они знали, что в шторм океан перестает быть безбрежным: многометровые волны окружают небольшой кораблик в жажде раздавить его, и куда ни бросишь взгляд - всюду только стена, громадная стена воды. Они знали, что в шторм океан перестает быть прозрачным: мутная грязь так и норовит заткнуть твой рот навсегда, чтобы ты нашел свой покой где-нибудь на дне этого страшного зверя. Они знали, что в шторм океан перестает быть тихим: за его ревом не слышен даже собственный вопль, вырывающийся из груди с последним предсмертным хрипом…

Перевод: Профессиональный многоголосый, авторский, профессиональный двухголосый
Кодек: MPEG-4 AVC
Жанр: Приключения, драма
В ролях: Джефф Бриджес, Кэролайн Гудолл, Джон Сэвидж, Скотт Вулф, Джереми Систо, Райан Филипп, Дэвид Лэшер, Эрик Майкл Коул, Джейсон Мэрсден, Дэвид Селби, Хулио Оскар Мечосо, Желько Иванек, Бальтазар Гетти, Итэн Эмбри
Субтитры: Russian, English
Режиссер: Ридли Скотт
Звук:
Russian: AC3, 448 Kbps (6 ch) Профессиональный многоголосый
Russian: AC3, 448 Kbps (6 ch) Авторский (Гаврилов)
Ukrainian: AC3, 448 Kbps (6 ch) Профессиональный двухголосый (1+1)
English: AC3, 640 Kbps (6 ch) Original
WIDDER Оценка10 из 10 (6 голосов, самая низкая оценка - 10, самая высокая - 10) КатегорияЗарубежные фильмы Раздают1 Качают0 Сидер замечен14-07-2019 12:19:12 (2 минуты назад) Добавлен11-03-2014 18:03:05 (65 месяцев назад) Размер9.01 GB (9674481656 Bytes)Оригинальное название: White Squall
Релиз от: ЗалилПродолжительность: 02:08:57
Семпл
MediaInfo & x264
Уникальный идентификатор : 190804078992322733453167861571756985668 (0x8F8B87679475CC519E7F5E3A72178D44)
Полное имя : White.Squall.1996.х264.BDRip.1080р.mkv
Формат : Matroska
Версия формата : Version 4 / Version 2
Размер файла : 9,01 Гбайт
Продолжительность : 2 ч. 8 м.
Общий поток : 10,0 Мбит/сек
Название фильма : ☭WIDDER☭
Дата кодирования : UTC 2014-03-11 13:15:18
Программа кодирования : mkvmerge v6.0.0 ('Coming Up For Air') built on Jan 20 2013 09:52:00
Библиотека кодирования : libebml v1.3.0 + libmatroska v1.4.0

Видео
Идентификатор : 1
Формат : AVC
Формат/Информация : Advanced Video Codec
Профиль формата : High@L4.1
Параметр CABAC формата : Да
Параметр ReFrames формата : 5 кадров
Идентификатор кодека : V_MPEG4/ISO/AVC
Продолжительность : 2 ч. 8 м.
Битрейт : 8001 Кбит/сек
Ширина : 1920 пикселей
Высота : 822 пикселя
Соотношение сторон : 2,35:1
Частота кадров : 23,976 кадра/сек
Цветовое пространство : YUV
Субдискретизация насыщенности : 4:2:0
Битовая глубина : 8 бит
Тип развёртки : Прогрессивная
Бит/(Пиксели*Кадры) : 0.211
Размер потока : 7,04 Гбайт (78%)
Заголовок : White Squall (1996)
Библиотека кодирования : x264 core 140 r2377 1ca7bb9
Настройки программы : cabac=1 / ref=5 / deblock=1:-3:-3 / analyse=0x3:0x133 / me=umh / subme=11 / psy=1 / psy_rd=1.00:0.00 / mixed_ref=1 / me_range=32 / chroma_me=1 / trellis=2 / 8x8dct=1 / cqm=0 / deadzone=21,11 / fast_pskip=0 / chroma_qp_offset=-2 / threads=12 / lookahead_threads=2 / sliced_threads=0 / nr=0 / decimate=1 / interlaced=0 / bluray_compat=0 / constrained_intra=0 / bframes=8 / b_pyramid=2 / b_adapt=2 / b_bias=0 / direct=3 / weightb=1 / open_gop=0 / weightp=2 / keyint=240 / keyint_min=23 / scenecut=40 / intra_refresh=0 / rc_lookahead=60 / rc=2pass / mbtree=0 / bitrate=8001 / ratetol=1.0 / qcomp=0.60 / qpmin=0 / qpmax=69 / qpstep=4 / cplxblur=20.0 / qblur=0.5 / vbv_maxrate=50000 / vbv_bufsize=50000 / nal_hrd=none / filler=0 / ip_ratio=1.40 / pb_ratio=1.30 / aq=1:0.90
Язык : English
Default : Да
Forced : Нет

Аудио #1
Идентификатор : 2
Формат : AC-3
Формат/Информация : Audio Coding 3
Расширение режима : CM (complete main)
Параметр Endianness формата : Big
Идентификатор кодека : A_AC3
Продолжительность : 2 ч. 8 м.
Вид битрейта : Постоянный
Битрейт : 448 Кбит/сек
Каналы : 6 каналов
Расположение каналов : Front: L C R, Side: L R, LFE
Частота : 48,0 КГц
Битовая глубина : 16 бит
Метод сжатия : С потерями
Размер потока : 413 Мбайт (4%)
Заголовок : AC3, 448 Kbps (6 ch) Профессиональный многоголосый
Язык : Russian
Default : Да
Forced : Нет

Аудио #2
Идентификатор : 3
Формат : AC-3
Формат/Информация : Audio Coding 3
Расширение режима : CM (complete main)
Параметр Endianness формата : Big
Идентификатор кодека : A_AC3
Продолжительность : 2 ч. 8 м.
Вид битрейта : Постоянный
Битрейт : 448 Кбит/сек
Каналы : 6 каналов
Расположение каналов : Front: L C R, Side: L R, LFE
Частота : 48,0 КГц
Битовая глубина : 16 бит
Метод сжатия : С потерями
Размер потока : 413 Мбайт (4%)
Заголовок : AC3, 448 Kbps (6 ch) Авторский (Гаврилов)
Язык : Russian
Default : Нет
Forced : Нет

Аудио #3
Идентификатор : 4
Формат : AC-3
Формат/Информация : Audio Coding 3
Расширение режима : CM (complete main)
Параметр Endianness формата : Big
Идентификатор кодека : A_AC3
Продолжительность : 2 ч. 8 м.
Вид битрейта : Постоянный
Битрейт : 448 Кбит/сек
Каналы : 6 каналов
Расположение каналов : Front: L C R, Side: L R, LFE
Частота : 48,0 КГц
Битовая глубина : 16 бит
Метод сжатия : С потерями
Размер потока : 413 Мбайт (4%)
Заголовок : AC3, 448 Kbps (6 ch) Профессиональный двухголосый
Язык : Ukrainian
Default : Нет
Forced : Нет

Аудио #4
Идентификатор : 5
Формат : AC-3
Формат/Информация : Audio Coding 3
Расширение режима : CM (complete main)
Параметр Endianness формата : Big
Идентификатор кодека : A_AC3
Продолжительность : 2 ч. 8 м.
Вид битрейта : Постоянный
Битрейт : 640 Кбит/сек
Каналы : 6 каналов
Расположение каналов : Front: L C R, Side: L R, LFE
Частота : 48,0 КГц
Битовая глубина : 16 бит
Метод сжатия : С потерями
Размер потока : 590 Мбайт (6%)
Заголовок : AC3, 640 Kbps (6 ch) Original
Язык : English
Default : Нет
Forced : Нет

Текст #1
Идентификатор : 6
Формат : PGS
Режим смешивания : zlib
Идентификатор кодека : S_HDMV/PGS
Идентификатор кодека/Информация : The same subtitle format used on BDs/HD-DVDs
Язык : Russian
Default : Нет
Forced : Нет

Текст #2
Идентификатор : 7
Формат : PGS
Режим смешивания : zlib
Идентификатор кодека : S_HDMV/PGS
Идентификатор кодека/Информация : The same subtitle format used on BDs/HD-DVDs
Язык : English
Default : Нет
Forced : Нет

Меню
00:00:00.000 : :Chapter 01
00:05:00.000 : :Chapter 02
00:10:00.000 : :Chapter 03
00:15:00.000 : :Chapter 04
00:20:00.000 : :Chapter 05
00:25:00.000 : :Chapter 06
00:30:00.000 : :Chapter 07
00:35:00.000 : :Chapter 08
00:40:00.000 : :Chapter 09
00:45:00.000 : :Chapter 10
00:50:00.000 : :Chapter 11
00:55:00.000 : :Chapter 12
01:00:00.000 : :Chapter 13
01:05:00.000 : :Chapter 14
01:10:00.000 : :Chapter 15
01:15:00.000 : :Chapter 16
01:20:00.000 : :Chapter 17
01:25:00.000 : :Chapter 18
01:30:00.000 : :Chapter 19
01:35:00.000 : :Chapter 20
01:40:00.000 : :Chapter 21
01:45:00.000 : :Chapter 22
01:50:00.000 : :Chapter 23
01:55:00.000 : :Chapter 24
02:00:00.000 : :Chapter 25
02:05:00.000 : :Chapter 26
____________________________________________
x264 [info]: frame I:1346 Avg QP:18.21 size:118302
x264 [info]: frame P:42752 Avg QP:20.43 size: 69071
x264 [info]: frame B:141419 Avg QP:22.68 size: 32681
x264 [info]: consecutive B-frames: 3.0% 3.9% 11.2% 14.4% 10.0% 52.7% 3.9% 0.5% 0.3%



Название: Белый шквал
Качество: BDRip 1080p
Выпущено: США / Hollywood Pictures, Largo Entertainment, Scott Free Productions
Видео: 1920x822 23,976 fps, 8001 kbps

Если у вас возникли проблемы с закачкой Белый шквал / White Squall (1996) BDRip 1080p | Р, A, P2, перейдите по ссылке - там вы найдете решение своей проблемы.

Категория: Зарубежные фильмы

 

Скачать бесплатно Белый шквал / White Squall (1996) BDRip 1080p | Р, A, P2 на пк

 

Информация
Посетители, находящиеся в группе Гости, не могут оставлять комментарии к данной публикации.
 
 
Скачать бесплатно Белый шквал / White Squall (1996) BDRip 1080p | Р, A, P2 на пкCopyright © 2019 .