Скачать бесплатно Солнце, море и парни / Where the Boys Are '84 (1984) BDRip 1080p | A на пк






Информация о фильме
О фильме: Четыре девушки развлекаются во время летних каникул во Флориде. И у каждой своя цель. Одна жаждет найти для "временного" секса какого-нибудь "Конана-Варвара". Другая не прочь встретить того единственного, которого судьба посылает только раз в жизни. И при этом все четверо хотят - наконец-то! - отдохнуть от мужиков...



Видео: MPEG-4 AVC, High@L4.1, 11.5 Mb/s, 1 920 x 1 080, 23.976 fps
Аудио 1 : Русский (AC-3, 2ch, 192 kb/s, 48.0 KHz)Навигация по главам: есть
Жанр: комедия
Качество: BDRip 1080p
Глобальные тэги: есть

MIОбщее
Уникальный идентификатор : 186271428625938054131069882051369366503 (0x8C22927CD7BB0385A8631341EFF7F3E7)
Полное имя : D:Солнце, море и парни Where the Boys Are '84 (1984).mkv
Формат : Matroska
Версия формата : Version 4 / Version 2
Размер файла : 8,51 Гбайт
Продолжительность : 1 ч. 34 м.
Общий поток : 12,9 Мбит/сек
Название фильма : Where the Boys Are '84
Тип содержимого : Movie
Описание : When girls want a vacation filled with fun, sand, and romance, they go to Fort Lauderdale...
Дата выпуска : 1984-04-06
Дата кодирования : UTC 2017-02-04 17:29:11
Программа кодирования : mkvmerge v9.8.0 ('Kuglblids') 64bit
Библиотека кодирования : libebml v1.3.4 + libmatroska v1.4.5
Обложка : Yes
Attachments : cover.jpg
ACTOR : Lynn-Holly Johnson, Lisa Hartman, Lorna Luft, Wendy Schaal, Russell Todd, Howard McGillin, Christopher McDonald, Daniel McDonald, Alana Stewart, Louise Sorel, Frank Zagarino
ARTIST : Lynn-Holly Johnson, Lisa Hartman, Lorna Luft, Wendy Schaal, Russell Todd, Howard McGillin, Christopher McDonald, Daniel McDonald, Alana Stewart, Louise Sorel, Frank Zagarino
DIRECTOR : Hy Averback
GENRE : Comedy, Romance
PRODUCER : Аллан Карр, Джефф Эппл, Теренс А. Доннелли
PRODUCTION_STUDIO : ITC Entertainment
SCREENPLAY_BY : George Wells
SUMMARY : When girls want a vacation filled with fun, sand, and romance, they go to Fort Lauderdale...
SYNOPSIS : Where the Boys Are '84 is a 1984 remake of the 1960 teen sex comedy film Where the Boys Are, starring Lisa Hartman, Lorna Luft, Wendy Schaal and Lynn-Holly Johnson. Directed by Hy Averback and produced by Allan Carr, it was the first film released by Tri-Star Pictures. Source: http://en.wikipedia.org/wiki/Where_the_Boys_Are_%2784

Видео
Идентификатор : 1
Формат : AVC
Формат/Информация : Advanced Video Codec
Профиль формата : High@L4.1
Параметр CABAC формата : Да
Параметр ReFrames формата : 4 кадра
Идентификатор кодека : V_MPEG4/ISO/AVC
Продолжительность : 1 ч. 34 м.
Битрейт : 11,5 Мбит/сек
Ширина : 1920 пикселей
Высота : 1080 пикселей
Соотношение сторон : 16:9
Режим частоты кадров : Постоянный
Частота кадров : 23,976 (24000/1001) кадра/сек
Цветовое пространство : YUV
Субдискретизация насыщенности : 4:2:0
Битовая глубина : 8 бит
Тип развёртки : Прогрессивная
Бит/(Пиксели*Кадры) : 0.231
Размер потока : 7,39 Гбайт (87%)
Заголовок : Where.the.Boys.Are.1984.1080p.BluRay.x264.DTS-FGT
Библиотека кодирования : x264 core 148 r2694 3b70645
Настройки программы : cabac=1 / ref=4 / deblock=1:-2:-2 / analyse=0x3:0x113 / me=umh / subme=7 / psy=1 / psy_rd=1.00:0.15 / mixed_ref=1 / me_range=16 / chroma_me=1 / trellis=1 / 8x8dct=1 / cqm=0 / deadzone=21,11 / fast_pskip=1 / chroma_qp_offset=-3 / threads=40 / lookahead_threads=3 / sliced_threads=0 / nr=0 / decimate=1 / interlaced=0 / bluray_compat=0 / constrained_intra=0 / bframes=3 / b_pyramid=2 / b_adapt=2 / b_bias=0 / direct=3 / weightb=1 / open_gop=0 / weightp=2 / keyint=250 / keyint_min=25 / scenecut=40 / intra_refresh=0 / rc_lookahead=50 / rc=abr / mbtree=1 / bitrate=11500 / ratetol=1.0 / qcomp=0.60 / qpmin=0 / qpmax=69 / qpstep=4 / vbv_maxrate=31250 / vbv_bufsize=31250 / nal_hrd=none / filler=0 / ip_ratio=1.40 / aq=1:1.00
Язык : English
Default : Да
Forced : Нет

Аудио #1
Идентификатор : 2
Формат : AC-3
Формат/Информация : Audio Coding 3
Расширение режима : CM (complete main)
Параметр Endianness формата : Big
Идентификатор кодека : A_AC3
Продолжительность : 1 ч. 34 м.
Вид битрейта : Постоянный
Битрейт : 192 Кбит/сек
Каналы : 2 канала
Расположение каналов : Front: L R
Частота : 48,0 КГц
Частота кадров : 31,250 кадров/сек (1536 spf)
Битовая глубина : 16 бит
Метод сжатия : С потерями
Размер потока : 130 Мбайт (1%)
Заголовок : AVO А.Гаврилов
Язык : Russian
Default : Да
Forced : Нет

Аудио #2
Идентификатор : 3
Формат : DTS
Формат/Информация : Digital Theater Systems
Режим : 16
Параметр Endianness формата : Big
Идентификатор кодека : A_DTS
Продолжительность : 1 ч. 34 м.
Вид битрейта : Постоянный
Битрейт : 1509 Кбит/сек
Каналы : 2 канала
Расположение каналов : Front: L R
Частота : 48,0 КГц
Частота кадров : 93,750 кадра/сек (512 spf)
Битовая глубина : 24 бит
Метод сжатия : С потерями
Размер потока : 1020 Мбайт (12%)
Заголовок : Where.the.Boys.Are.1984.1080p.BluRay.x264.DTS-FGT
Язык : English
Default : Нет
Forced : Нет

Меню
00:00:00.000 : en:Chapter 01
00:09:50.102 : en:Chapter 02
00:21:07.002 : en:Chapter 03
00:31:18.460 : en:Chapter 04
00:40:26.924 : en:Chapter 05
00:52:35.235 : en:Chapter 06
01:02:15.440 : en:Chapter 07
01:09:22.449 : en:Chapter 08
01:20:51.263 : en:Chapter 09
01:29:51.004 : en:Chapter 10







Скриншоты ЗалилГод выхода: 1984
Оригинальное название: Where the Boys Are '84
Режиссер: Хи Эвербэк / Hy Averback
murderer0303 ОценкаНикто ещё не поставил оценку КатегорияЗарубежные фильмы Раздают0 Качают1 Сидер замечен10-05-2018 15:19:06 (14 месяца назад) Добавлен04-02-2017 21:23:00 (30 месяцев назад) Размер8.51 GB (9138048132 Bytes)Аудио 2 : Английский (DTS, 2ch, 1 509 kb/s, 48.0 KHz)

Контейнер: MKV
AVO А.Гаврилов
Страна: Великобритания, США
Cубтитры : нет

Продолжительность: 01:34:31
Название: Солнце, море и парни
Перевод : Авторский (одноголосый закадровый) А.Гаврилов
В ролях: Лиза Хартман, Лорна Луфт, Уэнди Шаал, Линн-Холли Джонсон, Расселл Тодд, Говард МакДжиллин, Кристофер МакДональд, Дэниэл МакДональд, Алана Стюарт, Луиз Сорель

Студия: TriStar Pictures, Incorporated Television Company (ITC)

Если у вас возникли проблемы с закачкой Солнце, море и парни / Where the Boys Are '84 (1984) BDRip 1080p | A, перейдите по ссылке - там вы найдете решение своей проблемы.

Категория: Зарубежные фильмы

 

Скачать бесплатно Солнце, море и парни / Where the Boys Are '84 (1984) BDRip 1080p | A на пк

 

Информация
Посетители, находящиеся в группе Гости, не могут оставлять комментарии к данной публикации.
 
 
Скачать бесплатно Солнце, море и парни / Where the Boys Are '84 (1984) BDRip 1080p | A на пкCopyright © 2019 .