Скачать бесплатно Фронтовые подруги (1941) DVDRip от New-Team на пк





Видео: 688x512 (4:3), 25 fps, XviD ~ 2183 kbps avg, 0.248 bit/pixel
Источник:Продолжительность: 01:27:29

DVD5 R5
Описание:
1939-1940 гг. Финская война. В первые же дни группа девушек-добровольцев отправляется на фронт. Юные санитарки и медсестры в госпитале и на передовой самоотверженно помогают врачам спасать раненых солдат, с оружием в руках принимают участие в борьбе с врагом. В суровых испытаниях закаляется и крепнет дружба и любовь героев фильма...



DVDRip
Аудио: 48 kHz, Dolby Digital AC3 2.0, 192 kbps

Перевод:В ролях:
Зоя Фёдорова, Владимир Абрамов, Андрей Абрикосов, Константин Адашевский, Тамара Алёшина (Толубеева), Борис Блинов, Олег Жаков, Екатерина Мелентьева (Боярская), Манефа Соболевская, Юрий Толубеев...

Не требуется
Оригинальная аудиодорожка: русский

Режиссер: Виктор Эйсымонт

Раздача от:
MediaInfo
Общее
Полное имя : Frontovye.podrugi.1941.DVDRip_[New-team]_by_AVP_Studio.avi
Формат : AVI
Формат/Информация : Audio Video Interleave
Размер файла : 1,46 Гбайт
Продолжительность : 1 ч. 27 м.
Общий поток : 2384 Кбит/сек
Программа кодирования : VirtualDubModRus 1.5.10.2 (build 2542/release)
Библиотека кодирования : VirtualDubMod build 2542/release

Видео
Идентификатор : 0
Формат : MPEG-4 Visual
Профиль формата : Advanced Simple@L5
Параметр BVOP формата : 1
Параметр QPel формата : Нет
Параметр GMC формата : Без точки перехода
Параметр матрицы формата : Выборочная
Идентификатор кодека : XVID
Идентификатор кодека/Подсказка : XviD
Продолжительность : 1 ч. 27 м.
Битрейт : 2183 Кбит/сек
Ширина : 688 пикселей
Высота : 512 пикселей
Соотношение сторон : 4:3
Частота кадров : 25,000 кадров/сек
Цветовое пространство : YUV
Субдискретизация насыщенности : 4:2:0
Битовая глубина : 8 бит
Тип развёртки : Прогрессивная
Метод сжатия : С потерями
Бит/(Пиксели*Кадры) : 0.248
Размер потока : 1,33 Гбайт (92%)
Библиотека кодирования : XviD 73

Аудио
Идентификатор : 1
Формат : AC-3
Формат/Информация : Audio Coding 3
Расширение режима : CM (complete main)
Параметр Endianness формата : Big
Идентификатор кодека : 2000
Продолжительность : 1 ч. 27 м.
Вид битрейта : Постоянный
Битрейт : 192 Кбит/сек
Каналы : 2 канала
Расположение каналов : Front: L R
Частота : 48,0 КГц
Битовая глубина : 16 бит
Метод сжатия : С потерями
Размер потока : 120 Мбайт (8%)
Выравнивание : Разделение по промежуткам
Продолжительность промежутка : 40 мс. (1,00 видеокадр)
Время предзагрузки промежутка : 500 мс

Скриншоты

ЗалилЖанр: драма, военный
Cубтитры: нет
Страна: СССР
AVPStudio ОценкаНикто ещё не поставил оценку КатегорияНаши фильмы Раздают0 Качают2 Сидер замечен24-06-2017 9:19:06 (25 месяцев назад) Добавлен18-06-2015 21:35:53 (50 месяцев назад) Размер1.46 GB (1564420096 Bytes)Производство: Ленфильм

Качество видео:Год выпуска: 1941
Формат видео: AVI

Если у вас возникли проблемы с закачкой Фронтовые подруги (1941) DVDRip от New-Team, перейдите по ссылке - там вы найдете решение своей проблемы.

Категория: Наши фильмы

 

Скачать бесплатно Фронтовые подруги (1941) DVDRip от New-Team на пк

 

Информация
Посетители, находящиеся в группе Гости, не могут оставлять комментарии к данной публикации.
 
 
Скачать бесплатно Фронтовые подруги (1941) DVDRip от New-Team на пкCopyright © 2019 .