Скачать бесплатно Вечное сияние чистого разума / Eternal Sunshine of the Spotless Mind (2004) BDRip 1080p на пк






Информация о фильме
Жанр: драма, мелодрама, история
Год выхода: 2004
В ролях: Джим Керри, Кейт Уинслет, Элайджа Вуд, Марк Руффало, Том Уилкинсон, Кирстен Данст, Томас Джей Райан, Джейн Адамс, Дэвид Кросс, Джерри Роберт Бирн

Выпущено: Focus Features
AlexKa Оценка10 из 10 (21 голосов, самая низкая оценка - 10, самая высокая - 10) КатегорияЗарубежные фильмы Раздают18 Качают1 Сидер замечен14-07-2019 7:19:12 (2 минуты назад) Добавлен27-05-2017 7:41:27 (26 месяцев назад) Размер7.76 GB (8328676713 Bytes)Режиссер: Мишель Гондри
сэмпл

Скриншоты

MIОбщее
Уникальный идентификатор : 226326642257620332771920822159783445205 (0xAA44ECFE31105862A37D138554DF42D5)
Полное имя : Eternals.Sunshine.of.the.Spotless.Mind.2004.BDRip.1080p.Rus.Eng.mkv
Формат : Matroska
Версия формата : Version 2
Размер файла : 7,76 Гбайт
Продолжительность : 1 ч. 47 м.
Общий поток : 10,3 Мбит/сек
Название фильма : Вечное сияние чистого разума / Eternal Sunshine of the Spotless Mind (2004)
Дата кодирования : UTC 2013-01-10 14:27:59
Программа кодирования : mkvmerge v5.8.0 ('No Sleep / Pillow') built on Sep 2 2012 15:37:04
Библиотека кодирования : libebml v1.2.3 + libmatroska v1.3.0

Видео
Идентификатор : 1
Формат : AVC
Формат/Информация : Advanced Video Codec
Профиль формата : High@L4.1
Параметр CABAC формата : Да
Параметр ReFrames формата : 4 кадра
Идентификатор кодека : V_MPEG4/ISO/AVC
Продолжительность : 1 ч. 47 м.
Битрейт : 9420 Кбит/сек
Ширина : 1920 пикселей
Высота : 1040 пикселей
Соотношение сторон : 16:9
Частота кадров : 23,976 кадра/сек
Цветовое пространство : YUV
Субдискретизация насыщенности : 4:2:0
Битовая глубина : 8 бит
Тип развёртки : Прогрессивная
Бит/(Пиксели*Кадры) : 0.197
Размер потока : 6,93 Гбайт (89%)
Заголовок : Release by AlexKa
Библиотека кодирования : x264 core 129 r2230 1cffe9f
Настройки программы : cabac=1 / ref=4 / deblock=1:-3:-3 / analyse=0x3:0x133 / me=umh / subme=10 / psy=1 / psy_rd=1.00:0.10 / mixed_ref=1 / me_range=32 / chroma_me=1 / trellis=2 / 8x8dct=1 / cqm=0 / deadzone=21,11 / fast_pskip=0 / chroma_qp_offset=-3 / threads=12 / lookahead_threads=2 / sliced_threads=0 / nr=0 / decimate=0 / interlaced=0 / bluray_compat=0 / constrained_intra=0 / bframes=4 / b_pyramid=2 / b_adapt=2 / b_bias=0 / direct=3 / weightb=1 / open_gop=0 / weightp=2 / keyint=240 / keyint_min=23 / scenecut=40 / intra_refresh=0 / rc=2pass / mbtree=0 / bitrate=9420 / ratetol=1.0 / qcomp=0.60 / qpmin=0 / qpmax=69 / qpstep=4 / cplxblur=20.0 / qblur=0.5 / ip_ratio=1.40 / pb_ratio=1.30 / aq=1:0.80
Язык : English

Аудио #1
Идентификатор : 2
Формат : AC-3
Формат/Информация : Audio Coding 3
Расширение режима : CM (complete main)
Идентификатор кодека : A_AC3
Продолжительность : 1 ч. 47 м.
Вид битрейта : Постоянный
Битрейт : 448 Кбит/сек
Каналы : 6 каналов
Расположение каналов : Front: L C R, Side: L R, LFE
Частота : 48,0 КГц
Битовая глубина : 16 бит
Метод сжатия : С потерями
Размер потока : 345 Мбайт (4%)
Заголовок : Rus
Язык : Russian

Аудио #2
Идентификатор : 3
Формат : AC-3
Формат/Информация : Audio Coding 3
Расширение режима : CM (complete main)
Идентификатор кодека : A_AC3
Продолжительность : 1 ч. 47 м.
Вид битрейта : Постоянный
Битрейт : 448 Кбит/сек
Каналы : 6 каналов
Расположение каналов : Front: L C R, Side: L R, LFE
Частота : 48,0 КГц
Битовая глубина : 16 бит
Метод сжатия : С потерями
Размер потока : 345 Мбайт (4%)
Заголовок : Eng
Язык : English

Текст #1
Идентификатор : 4
Формат : UTF-8
Идентификатор кодека : S_TEXT/UTF8
Идентификатор кодека/Информация : UTF-8 Plain Text
Заголовок : Rus
Язык : Russian

Текст #2
Идентификатор : 5
Формат : UTF-8
Идентификатор кодека : S_TEXT/UTF8
Идентификатор кодека/Информация : UTF-8 Plain Text
Заголовок : Eng
Язык : English

Меню
00:00:00.000 : :Chapter 01
00:03:42.722 : :Chapter 02
00:10:30.755 : :Chapter 03
00:13:24.845 : :Chapter 04
00:17:37.388 : :Chapter 05
00:19:34.840 : :Chapter 06
00:25:11.301 : :Chapter 07
00:28:00.302 : :Chapter 08
00:35:08.064 : :Chapter 09
00:43:06.083 : :Chapter 10
00:49:28.590 : :Chapter 11
00:52:13.213 : :Chapter 12
00:59:23.977 : :Chapter 13
01:02:52.727 : :Chapter 14
01:15:49.920 : :Chapter 15
01:21:27.799 : :Chapter 16
01:24:22.182 : :Chapter 17
01:31:44.665 : :Chapter 18
01:35:51.746 : :Chapter 19
01:44:05.280 : :Chapter 20
01:47:38.785 : :Chapter 21x264x264 [info]: frame I:994 Avg QP:18.17 size:159196
x264 [info]: frame P:40360 Avg QP:20.74 size: 77009
x264 [info]: frame B:113566 Avg QP:22.92 size: 38185 ЗалилКодек: x264
Название: Вечное сияние чистого разума
Скачать: Оригинальное название: Eternal Sunshine of the Spotless Mind
Аудио #1: AC-3, 6 ch, 448 kbps (Rus)
Субтитры: Русские, Английские
Видео: 1920x1040 (16:9), 23.976 fps, 9420 kbps
Аудио #2: AC-3, 6 ch, 448 kbps (Eng)
Продолжительность: 01:47:41
О фильме: Наконец-то изобретена машина, которая позволяет избавиться от любых воспоминаний. Джоэль и Клементина решают выбросить друг друга из головы. Но в памяти Джоэля все еще живы самые нежные моменты их чувства. Чем меньше он помнит, тем больше любит.

Понимая, что он просто обожает Клементину, Джоэль пытается найти способ, чтобы вернуть любимой память о прошлом. Пока еще не очень поздно… Он должен победить ненавистный компьютерный мозг во что бы то ни стало!



Качество: BDRip (источник: Blu-ray Disc)
Перевод: Дублированный (лицензия)

Если у вас возникли проблемы с закачкой Вечное сияние чистого разума / Eternal Sunshine of the Spotless Mind (2004) BDRip 1080p, перейдите по ссылке - там вы найдете решение своей проблемы.

Категория: Зарубежные фильмы

 

Скачать бесплатно Вечное сияние чистого разума / Eternal Sunshine of the Spotless Mind (2004) BDRip 1080p на пк

 

Информация
Посетители, находящиеся в группе Гости, не могут оставлять комментарии к данной публикации.
 
 
Скачать бесплатно Вечное сияние чистого разума / Eternal Sunshine of the Spotless Mind (2004) BDRip 1080p на пкCopyright © 2019 .