Скачать бесплатно Утомленные солнцем 2: Предстояние (2010) BDRip-AVC от ExKinoRay на пк






Информация о фильме
О фильме:
Продолжение картины 1994 года. Героям первого фильма придется пройти сквозь пекло Великой Отечественной войны, чтобы найти друг друга и попытаться вновь стать счастливыми. Бывший комдив Котов, несправедливо осуждённый в 30-е годы как враг народа, чудом выжил и был отправлен на войну обычным рядовым бойцом штрафного батальона. Воевал, как все: в грязи, холоде и голоде, не заглядывая в будущее больше, чем на один день, да и тот надо было суметь прожить. Прожить и выжить в аду, которым была военная передовая. Его спасла вера. Вера в свою страну, вера в Бога и вера его дочери Нади в то, что отец жив…



Кодек: H.264
В ролях: Никита Михалков, Олег Меньшиков, Надежда Михалкова, Сергей Маковецкий, Дмитрий Дюжев, Артур Смольянинов, Андрей Мерзликин, Максим Суханов, Евгений Миронов, Виктория Толстоганова, Евгений Стычкин, Андрей Панин, Сергей Гармаш, Артем Михалков, Валерий Золотухин, Александр Голубев, Мария Шукшина, Наталья Суркова, Александр Пашутин, Валентин Гафт, Алексей Петренко, Александр Адабашьян, Александр Фисенко, Даниил Спиваковский, Алексей Булдаков, Александр Мохов, Адам Булгучев, Ангелина Миримская, Настя Скрыпник, Сергей Межов, Сергей Бачурский, Розалия Эрденко, Зинаида Осипова, Михаил Савельев, Николай Цихелашвили, Владимир Берегов, Симон Шварц

Качество: BDRip (AVC) (Blu-Ray (1080p))
Видео: MPEG-4 AVC, 2000 Кбит/с, 1024x436
Язык: Русский
Режиссер: Никита Михалков
Звук: AC3, 6 ch, 448 Кбит/с

MediaInfoОбщее
Уникальный идентификатор : 204638281447025101498731819389036463214 (0x99F3E63F1F6D1A1DAE9BA1C1E9EB046E)
Полное имя : G:1Utomlennye.solncem.2.2010.x264.BDRip.(AVC).ExkinoRay.mkv
Формат : Matroska
Версия формата : Version 2
Размер файла : 3,09 Гбайт
Продолжительность : 3 ч. 0 м.
Общий поток : 2448 Кбит/сек
Название фильма : Utomlennye.solncem.2.2010.x264.BDRip.(AVC).ExkinoRay
Дата кодирования : UTC 2012-10-27 10:39:49
Программа кодирования : mkvmerge v4.0.0 ('The Stars were mine') сборка от Jun 6 2010 16:18:42
Библиотека кодирования : libebml v1.0.0 + libmatroska v1.0.0

Видео
Идентификатор : 1
Формат : AVC
Формат/Информация : Advanced Video Codec
Профиль формата : High@L4.1
Параметр CABAC формата : Да
Параметр ReFrames формата : 8 кадров
Идентификатор кодека : V_MPEG4/ISO/AVC
Продолжительность : 3 ч. 0 м.
Битрейт : 2000 Кбит/сек
Ширина : 1024 пикселя
Высота : 436 пикселей
Соотношение сторон : 2,35:1
Частота кадров : 24,000 кадра/сек
Цветовое пространство : YUV
Субдискретизация насыщенности : 4:2:0
Битовая глубина : 8 бит
Тип развёртки : Прогрессивная
Бит/(Пиксели*Кадры) : 0.187
Размер потока : 2,46 Гбайт (80%)
Заголовок : Rip by Enigma-Vladislav71
Библиотека кодирования : x264 core 116 r2074 2641b9e
Настройки программы : cabac=1 / ref=8 / deblock=1:-2:-2 / analyse=0x3:0x133 / me=umh / subme=11 / psy=1 / psy_rd=1.00:0.00 / mixed_ref=1 / me_range=48 / chroma_me=1 / trellis=2 / 8x8dct=1 / cqm=0 / deadzone=21,11 / fast_pskip=0 / chroma_qp_offset=-2 / threads=3 / sliced_threads=0 / nr=0 / decimate=0 / interlaced=0 / bluray_compat=0 / constrained_intra=0 / bframes=8 / b_pyramid=2 / b_adapt=2 / b_bias=0 / direct=3 / weightb=1 / open_gop=0 / weightp=2 / keyint=240 / keyint_min=23 / scenecut=40 / intra_refresh=0 / rc=2pass / mbtree=0 / bitrate=2000 / ratetol=1.0 / qcomp=0.60 / qpmin=10 / qpmax=51 / qpstep=4 / cplxblur=20.0 / qblur=0.5 / ip_ratio=1.40 / pb_ratio=1.30 / aq=2:1.00
Язык : English
Default : Нет
Forced : Нет

Аудио
Идентификатор : 2
Формат : AC-3
Формат/Информация : Audio Coding 3
Расширение режима : CM (complete main)
Идентификатор кодека : A_AC3
Продолжительность : 3 ч. 0 м.
Вид битрейта : Постоянный
Битрейт : 448 Кбит/сек
Каналы : 6 каналов
Расположение каналов : Front: L C R, Side: L R, LFE
Частота : 48,0 КГц
Битовая глубина : 16 бит
Метод сжатия : С потерями
Размер потока : 579 Мбайт (18%)
Язык : Russian
Default : Да
Forced : Нет

Меню
00:00:00.000 : en:Chapter 01
00:00:17.000 : en:Chapter 02
00:06:34.583 : en:Chapter 03
00:22:12.250 : en:Chapter 04
00:35:29.041 : en:Chapter 05
00:48:34.500 : en:Chapter 06
01:17:12.000 : en:Chapter 07
01:46:11.625 : en:Chapter 08
02:09:38.291 : en:Chapter 09
02:32:19.875 : en:Chapter 10
02:53:52.250 : en:Chapter 11


Год выхода: 2010
Vladislav71 Оценка7 из 10 (3 голосов, самая низкая оценка - 1, самая высокая - 10) КатегорияНаши фильмы Раздают2 Качают0 Сидер замечен14-07-2019 6:19:12 (2 минуты назад) Добавлен27-10-2012 14:27:11 (82 месяца назад) Размер3.09 GB (3317908846 Bytes)Жанр: Драма, военный
Релиз от:

Продолжительность: 03:00:41
Страна: Германия, Россия, Франция, Студия Тритэ Никиты Михалкова
Семпл

Скриншоты


Оригинальное название: Утомленные солнцем 2: Предстояние
Дата релиза: 27.10.2012

Авторы релиза: Залил

Если у вас возникли проблемы с закачкой Утомленные солнцем 2: Предстояние (2010) BDRip-AVC от ExKinoRay, перейдите по ссылке - там вы найдете решение своей проблемы.

Категория: Наши фильмы

 

Скачать бесплатно Утомленные солнцем 2: Предстояние (2010) BDRip-AVC от ExKinoRay на пк

 

Информация
Посетители, находящиеся в группе Гости, не могут оставлять комментарии к данной публикации.
 
 
Скачать бесплатно Утомленные солнцем 2: Предстояние (2010) BDRip-AVC от ExKinoRay на пкCopyright © 2019 .