Скачать бесплатно Введение в архитектуру / An Introduction of Architecture (2012) HDTVRip-AVC от BTT-TEAM и STEPonee на пк






Видео: 720 x 304(2.368), 23.976 fps, x264 ~1356 kbps avg
Аудио: 48 kHz, AC3 Dolby Digital, 2ch, ~224 kbps (Русский)
Cубтитры: Русские
В ролях:
Ом Тхэ Ун в роли Сын Мина
Хан Га Ин в роли Со Ён
Ли Чже Хун в роли Сын Мина (студента)
Сюзи в роли Со Ён (студентки)
Чжо Чжон Сок в роли Нам Дык И
Ю Ён Сок в роли Чже Ука

Качество: HDTVRip-AVC -Релиз группы: и

Формат видео: MKV
Аудио: 48 kHz, AC3 Dolby Digital, 2ch, ~224 kbps (Корейский)
Оригинальная аудиодорожка: Корейский

Исходник -Перевод: Любительский (двухголосый)
Продолжительность: 01:56:18
Nami

Формат субтитров: ass

Скриншоты



отчет MediaInfo
Формат : Matroska
Версия формата : Version 2
Размер файла : 1,47 Гбайт
Продолжительность : 1 ч. 56 м.
Общий поток : 1806 Кбит/сек
Дата кодирования : UTC 2012-08-14 11:04:57
Программа кодирования : mkvmerge v5.7.0 ('The Whirlwind') built on Jul 8 2012 20:08:51
Библиотека кодирования : libebml v1.2.3 + libmatroska v1.3.0

Видео
Идентификатор : 1
Формат : AVC
Формат/Информация : Advanced Video Codec
Профиль формата : High@L3.0
Параметр CABAC формата : Да
Параметр ReFrames формата : 4 кадра
Идентификатор кодека : V_MPEG4/ISO/AVC
Продолжительность : 1 ч. 56 м.
Битрейт : 1356 Кбит/сек
Ширина : 720 пикселей
Высота : 304 пикселя
Соотношение сторон : 2,35:1
Частота кадров : 23,976 кадра/сек
Цветовое пространство : YUV
Субдискретизация насыщенности : 4:2:0
Битовая глубина : 8 бит
Тип развёртки : Прогрессивная
Бит/(Пиксели*Кадры) : 0.258
Размер потока : 1,07 Гбайт (73%)
Библиотека кодирования : x264 core 125 r2208 d9d2288
Настройки программы : cabac=1 / ref=2 / deblock=1:-2:-1 / analyse=0x3:0x113 / me=hex / subme=6 / psy=1 / psy_rd=1.00:0.10 / mixed_ref=1 / me_range=16 / chroma_me=1 / trellis=1 / 8x8dct=1 / cqm=0 / deadzone=21,11 / fast_pskip=1 / chroma_qp_offset=-3 / threads=3 / lookahead_threads=1 / sliced_threads=0 / nr=0 / decimate=0 / interlaced=0 / bluray_compat=0 / constrained_intra=0 / bframes=3 / b_pyramid=2 / b_adapt=1 / b_bias=0 / direct=1 / weightb=1 / open_gop=0 / weightp=1 / keyint=240 / keyint_min=23 / scenecut=40 / intra_refresh=0 / rc_lookahead=30 / rc=2pass / mbtree=1 / bitrate=1356 / ratetol=1.0 / qcomp=0.65 / qpmin=10 / qpmax=51 / qpstep=4 / cplxblur=20.0 / qblur=0.5 / ip_ratio=1.40 / aq=1:1.00
Язык : Korean
Default : Да
Forced : Нет
Коэффициенты матрицы : BT.709-5, BT.1361, IEC 61966-2-4 709, SMPTE RP177

Аудио #1
Идентификатор : 2
Формат : AC-3
Формат/Информация : Audio Coding 3
Расширение режима : CM (complete main)
Параметр Endianness формата : Big
Идентификатор кодека : A_AC3
Продолжительность : 1 ч. 56 м.
Вид битрейта : Постоянный
Битрейт : 224 Кбит/сек
Каналы : 2 канала
Расположение каналов : Front: L R
Частота : 48,0 КГц
Битовая глубина : 16 бит
Метод сжатия : С потерями
Размер потока : 186 Мбайт (12%)
Заголовок : DVO
Язык : Russian
Default : Да
Forced : Нет

Аудио #2
Идентификатор : 3
Формат : AC-3
Формат/Информация : Audio Coding 3
Расширение режима : CM (complete main)
Параметр Endianness формата : Big
Идентификатор кодека : A_AC3
Продолжительность : 1 ч. 56 м.
Вид битрейта : Постоянный
Битрейт : 224 Кбит/сек
Каналы : 2 канала
Расположение каналов : Front: L R
Частота : 48,0 КГц
Битовая глубина : 16 бит
Метод сжатия : С потерями
Размер потока : 186 Мбайт (12%)
Заголовок : Original
Язык : Korean
Default : Нет
Forced : Нет

Текст
Идентификатор : 4
Формат : ASS
Идентификатор кодека : S_TEXT/ASS
Идентификатор кодека/Информация : Advanced Sub Station Alpha
Метод сжатия : Без потерь
Заголовок : Фансаб-группа Big Boss
Язык : Russian
Default : Да
Forced : Нет
Оценка10 из 10 (1 голосов, самая низкая оценка - 10, самая высокая - 10) КатегорияЗарубежные фильмы Раздают0 Качают1 Сидер замечен22-06-2019 21:19:14 (21 день назад) Добавлен15-08-2012 23:16:56 (84 месяца назад) Размер1.47 GB (1575715748 Bytes)Год выпуска: 2012
Режиссер: Ли Ён Чжу / Lee Yong Joo

Описание: В офис 35-летнего архитектора Сын Мина однажды приходит женщина. Со Ён. Она – его первая любовь, с которой они встретились на занятиях по архитектуре и не виделись вот уже 15 лет.
Со Ён хочет, чтобы Сын Мин отстроил дом на острове Чеджу, в котором она когда-то выросла. Сын Мин соглашается и начинает строить дом, выстраивая при этом воспоминания о прошлых чувствах, которые они, будучи молодыми и наивными, смогли упустить.

Введение в архитектуру / Архитектура 101 / An Introduction of Architecture / Architecture 101 / Geon Chook Hak Gae-Ron

Доп. информация:
Перевод осуществляла команда фансаб-группы

Перевод: Cappuccino*_* & Silly Naive
Редакция: Vereena Scofield
Оформление: Golden Oppa

ОзвучиваниеСэмплЖанр: Романтика, мелодрама
Страна: Южная Корея
Ворон иHDTV 720p

Если у вас возникли проблемы с закачкой Введение в архитектуру / An Introduction of Architecture (2012) HDTVRip-AVC от BTT-TEAM и STEPonee, перейдите по ссылке - там вы найдете решение своей проблемы.

Категория: Зарубежные фильмы

 

Скачать бесплатно Введение в архитектуру / An Introduction of Architecture (2012) HDTVRip-AVC от BTT-TEAM и STEPonee на пк

 

Информация
Посетители, находящиеся в группе Гости, не могут оставлять комментарии к данной публикации.
 
 
Скачать бесплатно Введение в архитектуру / An Introduction of Architecture (2012) HDTVRip-AVC от BTT-TEAM и STEPonee на пкCopyright © 2019 .