Скачать бесплатно Помню – не помню! (2016) WEB-DLRip-AVC от New-Team | iTunes на пк




S.T.A.L.K.E.R.2 ОценкаНикто ещё не поставил оценку КатегорияНаши фильмы Раздают1 Качают0 Сидер замечен14-07-2019 5:19:12 (2 минуты назад) Добавлен28-04-2016 17:45:31 (39 месяцев назад) Размер745.58 MB (781792984 Bytes)Продолжительность: 01:15:30

Не требуется (русский)
Аудио кодек: AAC
Cубтитры: нет

Формат видео: MKV
В ролях: Наталия Медведева, Полина Максимова, Константин Крюков, Людмила Артемьева, Анна Ардова, Александр Демидов, Сергей Бадюк, Вадим Демчог, Анна Хилькевич, Дмитрий Хрусталев, Ингрид Олеринская, Данила Якушев

Навигация по главам: есть



MediaInfo
Общее
Уникальный идентификатор : 243870867671738718869336201942876602969 (0xB777D216DB632FFFB9AC03E15728C259)
Полное имя : M:1RipsPomnju ne pomnjuPomnju.ne.pomnju.2016.WEB-DLRip-AVC.745Mb.stalkerok.new-team.mkv
Формат : Matroska
Версия формата : Version 4 / Version 2
Размер файла : 746 Мбайт
Продолжительность : 1 ч. 15 м.
Общий поток : 1381 Кбит/сек
Название фильма : Помню – не помню! (2016) (New-Team) (Rip by Stalker oK)
Дата кодирования : UTC 2016-04-28 14:34:32
Программа кодирования : mkvmerge v8.6.1 ('Flying') 64bit
Библиотека кодирования : libebml v1.3.3 + libmatroska v1.4.4

Видео
Идентификатор : 1
Формат : AVC
Формат/Информация : Advanced Video Codec
Профиль формата : High@L4.1
Параметр CABAC формата : Да
Параметр ReFrames формата : 16 кадров
Идентификатор кодека : V_MPEG4/ISO/AVC
Продолжительность : 1 ч. 15 м.
Битрейт : 1316 Кбит/сек
Ширина : 860 пикселей
Высота : 360 пикселей
Соотношение сторон : 2,40:1
Соотношение сторон в оригинале : 2,40:1
Режим частоты кадров : Постоянный
Частота кадров : 24,000 кадра/сек
Цветовое пространство : YUV
Субдискретизация насыщенности : 4:2:0
Битовая глубина : 8 бит
Тип развёртки : Прогрессивная
Бит/(Пиксели*Кадры) : 0.177
Размер потока : 710 Мбайт (95%)
Заголовок : Помню – не помню! (2016) (New-Team) (Rip by Stalker oK)
Библиотека кодирования : x264 core 148 r2665kMod a01e339
Настройки программы : cabac=1 / ref=16 / deblock=1:-3:-2 / analyse=0x3:0x133 / me=umh / subme=11 / psy=1 / fade_compensate=0.00 / psy_rd=1.00:0.05 / mixed_ref=1 / me_range=48 / chroma_me=1 / trellis=2 / 8x8dct=1 / cqm=0 / deadzone=21,11 / fast_pskip=0 / chroma_qp_offset=-3 / threads=11 / lookahead_threads=2 / sliced_threads=0 / nr=0 / decimate=0 / interlaced=0 / bluray_compat=0 / constrained_intra=0 / fgo=0 / bframes=16 / b_pyramid=2 / b_adapt=2 / b_bias=0 / direct=3 / weightb=1 / open_gop=0 / weightp=2 / keyint=240 / keyint_min=23 / scenecut=40 / intra_refresh=0 / rc_lookahead=60 / rc=2pass / mbtree=0 / bitrate=1316 / ratetol=1.0 / qcomp=0.70 / qpmin=0 / qpmax=69 / qpstep=4 / cplxblur=20.0 / qblur=0.5 / vbv_maxrate=50000 / vbv_bufsize=62500 / nal_hrd=none / filler=0 / ip_ratio=1.40 / pb_ratio=1.30 / aq=3:0.90
Default : Да
Forced : Нет

Аудио
Идентификатор : 2
Формат : AAC
Формат/Информация : Advanced Audio Codec
Профиль формата : HE-AAC / LC
Идентификатор кодека : A_AAC
Продолжительность : 1 ч. 15 м.
Битрейт : 64,0 Кбит/сек
Каналы : 2 канала
Расположение каналов : Front: L R
Частота : 48,0 КГц / 24,0 КГц
Частота кадров : 23,438 кадра/сек (1024 spf)
Метод сжатия : С потерями
Задержка видео : 31 мс.
Размер потока : 34,6 Мбайт (5%)
Язык : Russian
Default : Да
Forced : Нет

Меню
00:00:00.000 : en:Глава 1
00:05:14.333 : en:Глава 2
00:11:59.749 : en:Глава 3
00:18:11.499 : en:Глава 4
00:23:58.582 : en:Глава 5
00:29:02.707 : en:Глава 6
00:34:57.665 : en:Глава 7
00:40:04.623 : en:Глава 8
00:45:29.623 : en:Глава 9
00:51:28.456 : en:Глава 10
00:56:31.831 : en:Глава 11
01:03:10.664 : en:Глава 12







ЗалилЖанр: комедия
Качество видео:Автор рипа:Аудио: русский, 64,0 Кбит/сек, 48,0 КГц / 24,0 КГц, 2 канала, AAC (HE-AAC / LC) [iTunes]
Видео: 1316 Кбит/сек, 860*360 (2,40:1), в 24,000 кадра/сек, AVC
Описание:
Живет себе на свете скромная девушка Алена, работает в библиотеке и мечтает сыграть Джульетту в самодеятельном театре. Она и представить себе не может, что буквально завтра ее жизнь кардинально изменится. Столкнувшись на улице с шикарной блондинкой, она теряет сознание и... приходит в себя в больнице... в чужом теле.





Видео кодек: AVC
Перевод:Страна: Россия
Сэмпл

Stalker oK

Помню – не помню!

«Почувствуй себя в чужом теле!»






Режиссер: Василий Ровенский

Релиз:

WEB-DLRip-AVC [BLUEBIRD / WEB-DL / 1080p]
Год выпуска: 2016

Если у вас возникли проблемы с закачкой Помню – не помню! (2016) WEB-DLRip-AVC от New-Team | iTunes, перейдите по ссылке - там вы найдете решение своей проблемы.

Категория: Наши фильмы

 

Скачать бесплатно Помню – не помню! (2016) WEB-DLRip-AVC от New-Team | iTunes на пк

 

Информация
Посетители, находящиеся в группе Гости, не могут оставлять комментарии к данной публикации.
 
 
Скачать бесплатно Помню – не помню! (2016) WEB-DLRip-AVC от New-Team | iTunes на пкCopyright © 2019 .