Скачать бесплатно Первая любовь / Primo amore (2004) DVD9 | P2 на пк






Информация о фильме
Продолжительность: 01:33:11
Режиссер: Маттео Гарроне
Качество: DVD-9
О фильме:Ювелирный скульптор Витторио морит голодом свою девушку Соню. Она теряет большую часть веса и на глазах превращается в скелет. Девушка, по мнению Витторио, теряя килограммы, освобождается от бренной плоти и, по сути, становится совершенным материалом для искусства.

Страна: Италия
В ролях: Виталиано Тревизан, Микела Ческон, Эльвеция Аллари, Паоло Каподуро, Паоло Кумерлато, Клаудио Мануццато, Марко Манцардо, Антонелла Маццуккато, Джанлука Моретто

Видео: PAL 16:9 (720x576) VBR
Звук: Русский (Dolby AC3, 2 ch), итальянский (Dolby AC3, 6 ch)

Меню



DVDInfo

Title: Локальный диск
Size: 7.43 Gb ( 7 794 690 KBytes ) - DVD-9
Enabled regions: 1, 2, 3, 4, 5, 6, 7, 8

VTS_01 :
Play Length: 01:33:11
Video: PAL 16:9 (720x576) VBR, Auto Pan&Scan
Audio:
Russian (Dolby AC3, 2 ch)
Italiano (Dolby AC3, 6 ch)
Subtitles:
Italiano
English

VTS_02 :
Play Length: 00:00:33
Video: PAL 16:9 (720x576) VBR, Auto Pan&Scan
Audio:
Not specified (Dolby AC3, 2 ch)

VTS_03 :
Play Length: 00:00:26
Video: PAL 16:9 (720x576) VBR, Auto Pan&Scan
Audio:
Not specified (Dolby AC3, 6 ch)

VTS_04 :
Play Length: 00:00:33
Video: PAL 16:9 (720x576) VBR, Auto Pan&Scan
Audio:
Not specified (Dolby AC3, 6 ch)

VTS_05 :
Play Length: 00:23:22
Video: PAL 4:3 (720x576) VBR
Audio:
Italiano (Dolby AC3, 2 ch)
Subtitles:
Italiano

VTS_06 :
Play Length:
Video: PAL 16:9 (720x576) VBR, Auto Pan&Scan
Subtitles:
Not specified

VTS_07 :
Play Length: 00:01:30
Video: PAL 16:9 (720x576) VBR, Auto Pan&Scan
Audio:
Not specified (Dolby AC3, 2 ch)

VTS_08 :
Play Length: 00:01:39
Video: PAL 4:3 (720x576) VBR
Audio:
Italiano (Dolby AC3, 2 ch)

VTS_09 :
Play Length: 00:02:47
Video: PAL 4:3 (720x576) VBR
Audio:
Deutsch (Dolby AC3, 1 ch)
Subtitles:
Italiano

VTS_10 :
Play Length: 00:13:54
Video: PAL 4:3 (720x576) VBR
Audio:
Italiano (Dolby AC3, 2 ch)
Subtitles:
Italiano

Menu Video:
PAL 16:9 (720x576) VBR
Auto Pan&Scan
Menu Audio:
Not specified (Dolby AC3, 2 ch)
Menu Subtitles:
Not specified
Menu English Language Unit :
Root Menu
Subpicture Menu
Chapter (PTT) Menu






MediaInfo Общее
Полное имя : D:РаздачиПервая любовь (2004) DVD-9_CustomVIDEO_TSVTS_01_1.VOB
Формат : MPEG-PS
Размер файла : 1024 Мбайт
Продолжительность : 19 м.
Режим общего битрейта : Переменный
Общий поток : 7224 Кбит/сек

Видео
Идентификатор : 224 (0xE0)
Формат : MPEG Video
Версия формата : Version 2
Профиль формата : Main@Main
Параметр BVOP формата : Да
Параметр матрицы формата : По умолчанию
Параметр GOP формата : M=3, N=13
Продолжительность : 19 м.
Вид битрейта : Переменный
Битрейт : 6440 Кбит/сек
Максимальный битрейт : 9000 Кбит/сек
Ширина : 720 пикселей
Высота : 576 пикселей
Соотношение сторон : 2,40:1
Частота кадров : 25,000 кадров/сек
Стандарт вещания : PAL
Цветовое пространство : YUV
Субдискретизация насыщенности : 4:2:0
Битовая глубина : 8 бит
Тип развёртки : Чересстрочная
Порядок развёртки : Верхнее поле первое
Метод сжатия : С потерями
Бит/(Пиксели*Кадры) : 0.621
TimeCode_FirstFrame : 10:00:12:00
TimeCode_Source : Group of pictures header
Размер потока : 913 Мбайт (89%)
Основные цвета : BT.601 PAL
Характеристики трансфера : BT.470 System B, BT.470 System G
Коэффициенты матрицы : BT.601

Аудио #1
Идентификатор : 189 (0xBD)-128 (0x80)
Формат : AC-3
Формат/Информация : Audio Coding 3
Расширение режима : CM (complete main)
Параметр Endianness формата : Big
Режим смешивания : DVD-Video
Продолжительность : 19 м.
Вид битрейта : Постоянный
Битрейт : 192 Кбит/сек
Каналы : 2 канала
Расположение каналов : Front: L R
Частота : 48,0 КГц
Битовая глубина : 16 бит
Метод сжатия : С потерями
Размер потока : 27,2 Мбайт (3%)

Аудио #2
Идентификатор : 189 (0xBD)-129 (0x81)
Формат : AC-3
Формат/Информация : Audio Coding 3
Расширение режима : CM (complete main)
Параметр Endianness формата : Big
Режим смешивания : DVD-Video
Продолжительность : 19 м.
Вид битрейта : Постоянный
Битрейт : 448 Кбит/сек
Каналы : 6 каналов
Расположение каналов : Front: L C R, Side: L R, LFE
Частота : 48,0 КГц
Битовая глубина : 16 бит
Метод сжатия : С потерями
Размер потока : 63,5 Мбайт (6%)

Меню




Скриншоты ЗалилЖанр: Драма
Субтитры: Английские, итальянские

Студия: Fandango, Medusa Film
Кодек: MPEG-2
Перевод: Профессиональный двухголосый закадровый
YArl ОценкаНикто ещё не поставил оценку КатегорияЗарубежные фильмы Раздают0 Качают1 Сидер замечен21-04-2019 20:19:06 (3 месяца назад) Добавлен21-11-2018 13:28:04 (8 месяцев назад) Размер7.43 GB (7981762560 Bytes)Год выхода: 2004
Название: Первая любовь
Оригинальное название: Primo amore

Если у вас возникли проблемы с закачкой Первая любовь / Primo amore (2004) DVD9 | P2, перейдите по ссылке - там вы найдете решение своей проблемы.

Категория: Зарубежные фильмы

 

Скачать бесплатно Первая любовь / Primo amore (2004) DVD9 | P2 на пк

 

Информация
Посетители, находящиеся в группе Гости, не могут оставлять комментарии к данной публикации.
 
 
Скачать бесплатно Первая любовь / Primo amore (2004) DVD9 | P2 на пкCopyright © 2019 .