Скачать бесплатно Первопечатник Иван Фёдоров (1941) DVDRip-AVC от New-Team на пк





Источник:В ролях:
Николай Дорохин, Всеволод Санаев, Павел Шпрингфельд, Михаил Державин, Александр Хохлов, Гавриил Белов, Вячеслав Новиков, Григорий Михайлов, Иван Рыжов, Сергей Днепров...

Страна: СССР
Cубтитры: нет
Качество видео:Раздача от:
MediaInfo
Общее
Полное имя : Pervopechatnik.Ivan.Fedorov.1941.DVDRip-AVC_[New-team]_by_AVP_Studio.mkv
Формат : Matroska
Версия формата : Version 4 / Version 2
Размер файла : 745 Мбайт
Продолжительность : 44 м.
Общий поток : 2324 Кбит/сек
Название фильма : Pervopechatnik.Ivan.Fedorov.1941.DVDRip-AVC_[New-team]_by_AVP_Studio
Дата кодирования : UTC 2015-01-27 11:56:39
Программа кодирования : mkvmerge v7.5.0 ('Glass Culture') 64bit built on Jan 4 2015 16:48:44
Библиотека кодирования : libebml v1.3.1 + libmatroska v1.4.2
DURATION : 00:44:47.648000000
NUMBER_OF_FRAMES : 83989
NUMBER_OF_BYTES : 64503552
_STATISTICS_WRITING_APP : mkvmerge v7.5.0 ('Glass Culture') 64bit built on Jan 4 2015 16:48:44
_STATISTICS_WRITING_DATE_UTC : 2015-01-27 11:56:39
_STATISTICS_TAGS : BPS DURATION NUMBER_OF_FRAMES NUMBER_OF_BYTES

Видео
Идентификатор : 1
Формат : AVC
Формат/Информация : Advanced Video Codec
Профиль формата : High@L4.1
Параметр CABAC формата : Да
Параметр ReFrames формата : 8 кадров
Идентификатор кодека : V_MPEG4/ISO/AVC
Продолжительность : 44 м.
Битрейт : 2130 Кбит/сек
Ширина : 712 пикселей
Высота : 572 пикселя
Соотношение сторон : 4:3
Режим частоты кадров : Постоянный
Частота кадров : 25,000 кадров/сек
Цветовое пространство : YUV
Субдискретизация насыщенности : 4:2:0
Битовая глубина : 8 бит
Тип развёртки : Прогрессивная
Бит/(Пиксели*Кадры) : 0.209
Размер потока : 668 Мбайт (90%)
Заголовок : Источник DVB
Библиотека кодирования : x264 core 138 r2356 a1d3d17
Настройки программы : cabac=1 / ref=8 / deblock=1:-2:-1 / analyse=0x3:0x113 / me=umh / subme=10 / psy=1 / psy_rd=1.00:0.05 / mixed_ref=1 / me_range=32 / chroma_me=1 / trellis=2 / 8x8dct=1 / cqm=0 / deadzone=21,11 / fast_pskip=0 / chroma_qp_offset=-3 / threads=6 / lookahead_threads=1 / sliced_threads=0 / nr=0 / decimate=0 / interlaced=0 / bluray_compat=0 / constrained_intra=0 / bframes=8 / b_pyramid=2 / b_adapt=2 / b_bias=0 / direct=3 / weightb=1 / open_gop=0 / weightp=2 / keyint=250 / keyint_min=25 / scenecut=40 / intra_refresh=0 / rc=2pass / mbtree=0 / bitrate=2130 / ratetol=1.0 / qcomp=0.60 / qpmin=0 / qpmax=69 / qpstep=4 / cplxblur=20.0 / qblur=0.5 / ip_ratio=1.40 / pb_ratio=1.30 / aq=1:1.00
Язык : Russian
Default : Да
Forced : Нет

Аудио
Идентификатор : 2
Формат : AC-3
Формат/Информация : Audio Coding 3
Профиль формата : Dolby Digital
Расширение режима : CM (complete main)
Параметр Endianness формата : Big
Идентификатор кодека : A_AC3
Продолжительность : 44 м.
Вид битрейта : Постоянный
Битрейт : 192 Кбит/сек
Каналы : 2 канала
Расположение каналов : Front: L R
Частота : 48,0 КГц
Битовая глубина : 16 бит
Метод сжатия : С потерями
Размер потока : 61,5 Мбайт (8%)
Заголовок : Источник DVB
Язык : Russian
Default : Да
Forced : Нет

Скриншоты

ЗалилФормат видео: MKV

Перевод:Жанр: биография, история
DVD5 R5
Производство: Союздетфильм

Описание:
Историко-биографический фильм о жизни Ивана Федорова, создателя первой на Руси типографии. Печатные книги, изданные во время правления Ивана Грозного, казались колдовством. Федоров был обвинен в ереси…



Год выпуска: 1941
Режиссер: Григорий Левкоев

Продолжительность: 0:44:47

Не требуется
Аудио: 48 kHz, Dolby Digital AC3 2.0, 192 kbps

Оригинальная аудиодорожка: русский

Видео: 712->762x572 (4:3), 25 fps, H264 ~ 2130 kbps avg, 0.209 bit/pixel
AVPStudio Оценка10 из 10 (1 голосов, самая низкая оценка - 10, самая высокая - 10) КатегорияНаши фильмы Раздают0 Качают1 Сидер замечен23-03-2019 22:19:07 (4 месяца назад) Добавлен27-01-2015 15:26:07 (54 месяца назад) Размер744.60 MB (780769704 Bytes)DVDRip-AVC

Если у вас возникли проблемы с закачкой Первопечатник Иван Фёдоров (1941) DVDRip-AVC от New-Team, перейдите по ссылке - там вы найдете решение своей проблемы.

Категория: Наши фильмы

 

Скачать бесплатно Первопечатник Иван Фёдоров (1941) DVDRip-AVC от New-Team на пк

 

Информация
Посетители, находящиеся в группе Гости, не могут оставлять комментарии к данной публикации.
 
 
Скачать бесплатно Первопечатник Иван Фёдоров (1941) DVDRip-AVC от New-Team на пкCopyright © 2019 .