Скачать бесплатно Обезьянки из космоса / Alien Monkeys [S01] (2015) WEBRip 720p от -merci- на пк






Информация о фильме
Релиз от: -merci- ЗалилВидео: AVC, High@L3.1, 1280x720 (16:9), 25 fps, ~1 768 kbps, ~0.053 bit/pixel
Режиссер: Сан-хо Ли, Чхве Джин Ён, Сан Гур

Перевод: не требуется
Семпл


Формат: MKV
О фильме:
Мартышки Таки и Оки прилетели на Землю из космоса. Их Миссия - исследовать Землю и веселиться до упаду!
В каждой серии друзья перевернут Землю вверх дном и сочинят веселую песенку из подручных предметов.
Оки самая любопытная обезьянка во Вселенной, а Таки готов на любые подвиги ради бутылочки лимонада. А что это значит? Значит, что друзей ждут неприятности на каждом шагу!

Звук: 48.0 KHz, AC3, 2.0, 192 Kbps
Страна: Корея, CrazyBird studio
Субтитры: нет

Список серий
01. Металлолом
02. Крокодилы
03. Каток
04. Кузнечик
05. Ванная комната
06. Муха
07. Танец Деда Мороза
08. Газонокосилка
09. Курица
10. Собака
11. Хамелеон
12. Собака 2
13. Ледники
14. Автомат с газировкой
15. Комар
16. Собака 3
17. Червяк
18. Каракули
19. Капля
20. Офис
21. Таракан
22. Кузнец
23. Магнит
24. Лягушка
25. Открывалка
26. Крокодил 2
27. Гавайи
28. Одуванчик
29. Незваный гость
30. Ядовитый паук
31. Одуванчик 2
32. Большой каньон
33. Маска из Африки
34. Автомат с газировкой 2
35. Блоха
36. Комар 2
37. Пустыня
38. Трещина
39. Крокодил 3
40. Каток 2
41. Каменный человек, Харыбан
42. Пчела
43. Незваный гость
44. Икота
45. Пещера
46. Космическая Одиссея
47. Бамбук
48. Весна, лето, осень, зима
49. Змея!
50. Каток 3
51. Зонтик
52. Щенок


MI
21. Таракан. 720p.x264.-merci-.mkv
Format : Matroska
Format version : Version 2
File size : 45.1 MiB
Duration : 3mn 8s
Overall bit rate : 2 000 Kbps
Movie name : Обезьянки из космоса / Alien Monkeys / by -merci-
Encoded date : UTC 2015-04-17 15:24:23
Writing application : mkvmerge v5.8.0 ('No Sleep / Pillow') built on Sep 2 2012 15:37:04
Writing library : libebml v1.2.3 + libmatroska v1.3.0

Video
ID : 1
Format : AVC
Format/Info : Advanced Video Codec
Format profile : High@L3.1
Format settings, CABAC : Yes
Format settings, ReFrames : 2 frames
Codec ID : V_MPEG4/ISO/AVC
Duration : 3mn 8s
Bit rate : 1 768 Kbps
Width : 1 280 pixels
Height : 720 pixels
Display aspect ratio : 16:9
Frame rate mode : Constant
Frame rate : 25.000 fps
Color space : YUV
Chroma subsampling : 4:2:0
Bit depth : 8 bits
Scan type : Progressive
Bits/(Pixel*Frame) : 0.077
Stream size : 39.8 MiB (88%)
Title : 21. Таракан. 720p.x264.-merci-
Language : English
Default : Yes
Forced : No
Color range : Limited
Color primaries : BT.709
Transfer characteristics : BT.709
Matrix coefficients : BT.709

Audio
ID : 2
Format : AC-3
Format/Info : Audio Coding 3
Mode extension : CM (complete main)
Format settings, Endianness : Big
Codec ID : A_AC3
Duration : 3mn 8s
Bit rate mode : Constant
Bit rate : 192 Kbps
Channel(s) : 2 channels
Channel positions : Front: L R
Sampling rate : 48.0 KHz
Compression mode : Lossy
Delay relative to video : 8ms
Stream size : 4.33 MiB (10%)
Title : eng
Language : English
Default : Yes
Forced : No




Скриншоты



Доп. информация:
Год выхода: 2015
Продолжительность: 52 ~ 00:03:09
Оригинальное название: Alien Monkeys
Жанр: мультсериал, комедия, приключения, детский, семейный

tooon ОценкаНикто ещё не поставил оценку КатегорияМультипликация Раздают1 Качают0 Сидер замечен14-07-2019 3:19:12 (2 минуты назад) Добавлен27-01-2016 8:46:53 (42 месяца назад) Размер2.29 GB (2459950886 Bytes)Название: Обезьянки из космоса
Качество: WEBRip 720p

Если у вас возникли проблемы с закачкой Обезьянки из космоса / Alien Monkeys [S01] (2015) WEBRip 720p от -merci-, перейдите по ссылке - там вы найдете решение своей проблемы.

Категория: Мультипликация

 

Скачать бесплатно Обезьянки из космоса / Alien Monkeys [S01] (2015) WEBRip 720p от -merci- на пк

 

Информация
Посетители, находящиеся в группе Гости, не могут оставлять комментарии к данной публикации.
 
 
Скачать бесплатно Обезьянки из космоса / Alien Monkeys [S01] (2015) WEBRip 720p от -merci- на пкCopyright © 2019 .