Скачать бесплатно Дикая / Wild (2014) BDRip 720p от NNNB на пк




Релиз от: Формат: AVC (библиотека кодирования x.264)
Продолжительность: 01:55:36

ВидеорядАудио №2: английский / AC3 / 5.1 / 48 kHz / 640 kbps /
Качество: BDRip 720p
Оригинальное название: Wild
Сюжет фильма:
В центре сюжета Шерил Стрэйд, раздавленная неудавшимся браком и смертью матери и потерявшая всякую надежду на счастье женщина, отправляется в пешее странствие по территории Pacific Crest Trail - маршруту по наиболее высоким участкам хребта Сьерра-Невада и Каскадных гор. Испытания, выпавшие в этом опасном одиночном путешествии на долю героини, неминуемо исцеляют ее от душевных страданий, но процесс этот будет отнюдь не безболезненным.



В ролях: Риз Уизерспун , Лора Дерн , Томас Садоски , Кин МакРей , Михил Хаушман , У. Эрл Браун , Габи Хоффманн , Кевин О. Ранкин , Брайан Ван Холт , Клифф Де Янг , Мо , Уилл Кадди
WiKi

Контейнер (Расширение): MKV
Сообщество:
MediaInfo

Format : Matroska
Format version : Version 2
File size : 5.72 GiB
Duration : 1h 55mn
Overall bit rate : 7 087 Kbps
Movie name : Dikaja.(2014).BDRip.720p.[denis100]
Encoded date : UTC 2015-05-06 11:33:05
Writing application : mkvmerge v5.8.0 ('No Sleep / Pillow') built on Sep 2 2012 15:37:04
Writing library : libebml v1.2.3 + libmatroska v1.3.0

Video
ID : 1
Format : AVC
Format/Info : Advanced Video Codec
Format profile : High@L4.1
Format settings, CABAC : Yes
Format settings, ReFrames : 12 frames
Codec ID : V_MPEG4/ISO/AVC
Duration : 1h 55mn
Bit rate : 6 000 Kbps
Width : 1 280 pixels
Height : 536 pixels
Display aspect ratio : 2.40:1
Frame rate : 23.976 fps
Color space : YUV
Chroma subsampling : 4:2:0
Bit depth : 8 bits
Scan type : Progressive
Bits/(Pixel*Frame) : 0.365
Stream size : 4.73 GiB (83%)
Title : Dikaja.(2014).BDRip.720p.[denis100]
Writing library : x264 core 142 r2479 dd79a61
Encoding settings : cabac=1 / ref=12 / deblock=1:-3:-3 / analyse=0x3:0x133 / me=umh / subme=11 / psy=1 / psy_rd=1.00:0.10 / mixed_ref=1 / me_range=32 / chroma_me=1 / trellis=2 / 8x8dct=1 / cqm=0 / deadzone=21,11 / fast_pskip=0 / chroma_qp_offset=-3 / threads=12 / lookahead_threads=2 / sliced_threads=0 / nr=0 / decimate=0 / interlaced=0 / bluray_compat=0 / constrained_intra=0 / bframes=8 / b_pyramid=2 / b_adapt=2 / b_bias=0 / direct=3 / weightb=1 / open_gop=0 / weightp=2 / keyint=250 / keyint_min=23 / scenecut=40 / intra_refresh=0 / rc_lookahead=80 / rc=2pass / mbtree=1 / bitrate=6000 / ratetol=1.0 / qcomp=0.70 / qpmin=0 / qpmax=69 / qpstep=4 / cplxblur=20.0 / qblur=0.5 / ip_ratio=1.40 / aq=1:0.80
Language : English
Default : Yes
Forced : No

Audio #1
ID : 2
Format : AC-3
Format/Info : Audio Coding 3
Mode extension : CM (complete main)
Codec ID : A_AC3
Duration : 1h 55mn
Bit rate mode : Constant
Bit rate : 448 Kbps
Channel(s) : 6 channels
Channel positions : Front: L C R, Side: L R, LFE
Sampling rate : 48.0 KHz
Bit depth : 16 bits
Compression mode : Lossy
Stream size : 370 MiB (6%)
Title : Дублированный
Language : Russian
Default : No
Forced : No

Audio #2
ID : 3
Format : AC-3
Format/Info : Audio Coding 3
Mode extension : CM (complete main)
Codec ID : A_AC3
Duration : 1h 55mn
Bit rate mode : Constant
Bit rate : 640 Kbps
Channel(s) : 6 channels
Channel positions : Front: L C R, Side: L R, LFE
Sampling rate : 48.0 KHz
Bit depth : 16 bits
Compression mode : Lossy
Stream size : 529 MiB (9%)
Title : English
Language : English
Default : No
Forced : No

Text #1
ID : 4
Format : UTF-8
Codec ID : S_TEXT/UTF8
Codec ID/Info : UTF-8 Plain Text
Language : Russian
Default : No
Forced : No

Text #2
ID : 5
Format : UTF-8
Codec ID : S_TEXT/UTF8
Codec ID/Info : UTF-8 Plain Text
Language : English
Default : No
Forced : No

Text #3
ID : 6
Format : UTF-8
Codec ID : S_TEXT/UTF8
Codec ID/Info : UTF-8 Plain Text
Title : SDH
Language : English
Default : No
Forced : No

Menu
00:00:00.000 : en:00:00:00.000
00:02:57.177 : en:00:02:57.177
00:05:48.306 : en:00:05:48.306
00:09:36.910 : en:00:09:36.910
00:12:02.013 : en:00:12:02.013
00:14:56.729 : en:00:14:56.729
00:19:38.344 : en:00:19:38.344
00:22:42.319 : en:00:22:42.319
00:26:09.443 : en:00:26:09.443
00:31:03.987 : en:00:31:03.987
00:33:42.646 : en:00:33:42.646
00:35:58.990 : en:00:35:58.990
00:40:35.600 : en:00:40:35.600
00:44:04.976 : en:00:44:04.976
00:47:38.814 : en:00:47:38.814
00:51:52.026 : en:00:51:52.026
00:54:43.071 : en:00:54:43.071
00:58:57.617 : en:00:58:57.617
01:02:13.438 : en:01:02:13.438
01:04:54.182 : en:01:04:54.182
01:07:52.402 : en:01:07:52.402
01:11:53.184 : en:01:11:53.184
01:15:15.136 : en:01:15:15.136
01:18:05.723 : en:01:18:05.723
01:20:57.936 : en:01:20:57.936
01:23:13.280 : en:01:23:13.280
01:26:39.611 : en:01:26:39.611
01:29:24.401 : en:01:29:24.401
01:32:09.149 : en:01:32:09.149
01:34:41.175 : en:01:34:41.175
01:36:37.458 : en:01:36:37.458
01:38:04.587 : en:01:38:04.587
01:41:03.182 : en:01:41:03.182
01:43:11.102 : en:01:43:11.102
01:47:12.343 : en:01:47:12.343
01:50:33.001 : en:01:50:33.001


Скриншоты ЗалилДикая / Wild

Аудио №1: русский / AC3 / 5.1 / 48 kHz / 448 kbps /Выпущено: США
Перевод: Русское название: Дикая
Жанр: драма, биография
_denis_100 Оценка10 из 10 (10 голосов, самая низкая оценка - 10, самая высокая - 10) КатегорияЗарубежные фильмы Раздают1 Качают0 Сидер замечен13-07-2019 23:19:12 (3 часа назад) Добавлен06-05-2015 14:44:28 (51 месяц назад) Размер5.72 GB (6145164094 Bytes)Навигация по главам(Чаптеры): есть
Дублированный - [Лицензия]

Субтитры: русские, английские, английские (SDH)
|Дублированный|
Видео: 1280x536 (2.40:1), 6000 Кбит/сек, 23,976 кадр/сек, 0,365 Бит/[Пиксели*Кадры]
Год выпуска: 2014
Режиссер: Жан-Марк Валле

Если у вас возникли проблемы с закачкой Дикая / Wild (2014) BDRip 720p от NNNB, перейдите по ссылке - там вы найдете решение своей проблемы.

Категория: Зарубежные фильмы

 

Скачать бесплатно Дикая / Wild (2014) BDRip 720p от NNNB на пк

 

Информация
Посетители, находящиеся в группе Гости, не могут оставлять комментарии к данной публикации.
 
 
Скачать бесплатно Дикая / Wild (2014) BDRip 720p от NNNB на пкCopyright © 2019 .