Скачать бесплатно Кин-дза-дза! (1986) BDRip 720p от New Team на пк






Жанр: фантастика, драма, комедия

||

Скриншоты
Media Info
General
Unique ID : 239068129543463146877766383889184373779 (0xB3DAD8D14C646B12809FF2FC243EBC13)
Complete name : E:BDKIN_DZA_DZA.BDRip.720.[Youtracker]1.mkv
Format : Matroska
Format version : Version 4 / Version 2
File size : 1.83 GiB
Duration : 1h 6mn
Overall bit rate : 3 950 Kbps
Encoded date : UTC 2013-09-09 02:22:08
Writing application : mkvmerge v6.3.0 ('You can't stop me!') built on Jun 28 2013 20:09:41
Writing library : libebml v1.3.0 + libmatroska v1.4.0

Video
ID : 1
Format : AVC
Format/Info : Advanced Video Codec
Format profile : High@L4.1
Format settings, CABAC : Yes
Format settings, ReFrames : 4 frames
Codec ID : V_MPEG4/ISO/AVC
Duration : 1h 6mn
Bit rate : 3 500 Kbps
Width : 992 pixels
Height : 720 pixels
Display aspect ratio : 1.378
Frame rate : 23.976 fps
Color space : YUV
Chroma subsampling : 4:2:0
Bit depth : 8 bits
Scan type : Progressive
Bits/(Pixel*Frame) : 0.204
Stream size : 1.58 GiB (87%)
Writing library : x264 core 132 r2310 76a5c3a
Encoding settings : cabac=1 / ref=4 / deblock=1:-3:-3 / analyse=0x3:0x113 / me=umh / subme=10 / psy=1 / psy_rd=1.00:0.15 / mixed_ref=1 / me_range=24 / chroma_me=1 / trellis=2 / 8x8dct=1 / cqm=0 / deadzone=21,11 / fast_pskip=0 / chroma_qp_offset=-3 / threads=3 / lookahead_threads=1 / sliced_threads=0 / nr=0 / decimate=0 / interlaced=0 / bluray_compat=0 / constrained_intra=0 / bframes=9 / b_pyramid=2 / b_adapt=2 / b_bias=0 / direct=3 / weightb=1 / open_gop=0 / weightp=2 / keyint=240 / keyint_min=24 / scenecut=40 / intra_refresh=0 / rc_lookahead=60 / rc=2pass / mbtree=0 / bitrate=3500 / ratetol=1.0 / qcomp=1.00 / qpmin=0 / qpmax=69 / qpstep=4 / cplxblur=20.0 / qblur=0.5 / vbv_maxrate=40000 / vbv_bufsize=30000 / nal_hrd=none / ip_ratio=1.40 / pb_ratio=1.30 / aq=1:0.80
Default : Yes
Forced : No

Audio
ID : 2
Format : AC-3
Format/Info : Audio Coding 3
Mode extension : CM (complete main)
Codec ID : A_AC3
Duration : 1h 6mn
Bit rate mode : Constant
Bit rate : 448 Kbps
Channel(s) : 6 channels
Channel positions : Front: L C R, Side: L R, LFE
Sampling rate : 48.0 KHz
Bit depth : 16 bits
Compression mode : Lossy
Stream size : 212 MiB (11%)
Title : Оригинал
Language : Russian
Default : Yes
Forced : No

ЗалилКонтейнер: MKV
Аудио: русский / AC3 / 5.1 / 48 kHz / 448 kbps / 16 bitВидео 2: AVC, 960x720 (4:3), 3500 kbps, 23,976 fps, 0,211 bpp
Описание: Прораб Владимир Николаевич Машков и не подозревал, что обычный путь до универсама за хлебом и макаронами обернется межгалактическими путешествиями. А все эта встреча со студентом в кроличьей шапке с большой сумкой и с каким-то маленьким устройством - «машинкой перемещения», как он ее сам называл.
Короче, нажал на кнопку - и оказался вместе с молодым человеком в пустыне, и не в каких-нибудь Каракумах, а на планете-пустыне Плюк в тентуре, галактика Кин-дза-дза в спирали...



Видео 1: AVC, 992x720 (1.378), 3500 kbps, 23,976 fps, 0,204 bpp
Режиссер: Георгий Данелия

Год выпуска: 1986

Страна: СССР
Продолжительность: 01:06:12 + 01:06:37

IMHO TEP Оценка10 из 10 (2 голосов, самая низкая оценка - 10, самая высокая - 10) КатегорияНаши фильмы Раздают1 Качают1 Сидер замечен12-07-2019 0:19:12 (2 минуты назад) Добавлен09-09-2013 6:32:46 (71 месяц назад) Размер3.66 GB (3935066022 Bytes)Перевод: Не требуется

Качество: BDRip 720p
В ролях: Станислав Любшин (Владимир Николаевич), Евгений Леонов (Уеф, Чатланин), Юрий Яковлев (Би, Пацак), Леван Габриадзе (Гедеван Александрович), Ольга Машная (Деконт), Ирина Шмелева (Тачаночница), Лев Перфилов (Диссидент), Георгий Данелия (Абрадокс), Александра Дорохина (женщина в тоннеле, которую пытался соблазнить Уэф), Галина Данелия-Юркова (жена Машкова), Валентин Маренков (сторож со змеевиком на голове), Владимир Федоров («жёлтые штаны»)

Если у вас возникли проблемы с закачкой Кин-дза-дза! (1986) BDRip 720p от New Team, перейдите по ссылке - там вы найдете решение своей проблемы.

Категория: Наши фильмы

 

Скачать бесплатно Кин-дза-дза! (1986) BDRip 720p от New Team на пк

 

Информация
Посетители, находящиеся в группе Гости, не могут оставлять комментарии к данной публикации.
 
 
Скачать бесплатно Кин-дза-дза! (1986) BDRip 720p от New Team на пкCopyright © 2019 .