Скачать бесплатно Репортаж с линии огня (1985) SATRip-AVC от New-Team на пк





Оригинальная аудиодорожка: русский

Аудио: 48 kHz, Dolby Digital AC3 2.0, 192 kbps

SATRip-AVC
Описание:
Выпускник ВГИКа, оператор кинохроники Владимир Руднев и его помощница Сашенька, ассистентка режиссера Московской студии кинохроники, ведут съемки боевых действий Красной Армии в годы Великой Отечественной войны. Не все получается сразу - у них еще нет опыта. Из огромного потока хроники, снятой на линии огня, они терпеливо и мужественно создают портрет своего современника.



Формат видео: MKV

Раздача от:
MediaInfo
Общее
Полное имя : Reportazh.s.linii.ognya.1985.SATRip-AVC_[New-team]_by_AVP_Studio.mkv
Формат : Matroska
Версия формата : Version 2
Размер файла : 1,09 Гбайт
Продолжительность : 1 ч. 10 м.
Общий поток : 2198 Кбит/сек
Дата кодирования : UTC 2015-10-01 13:35:40
Программа кодирования : mkvmerge v6.1.0 ('Old Devil') built on Mar 4 2013 09:10:42
Библиотека кодирования : libebml v1.3.0 + libmatroska v1.4.0

Видео
Идентификатор : 1
Формат : AVC
Формат/Информация : Advanced Video Codec
Профиль формата : High@L4.1
Параметр CABAC формата : Да
Параметр ReFrames формата : 10 кадров
Идентификатор кодека : V_MPEG4/ISO/AVC
Продолжительность : 1 ч. 10 м.
Битрейт : 2004 Кбит/сек
Ширина : 696 пикселей
Высота : 556 пикселей
Соотношение сторон : 4:3
Соотношение сторон в оригинале : 4:3
Режим частоты кадров : Постоянный
Частота кадров : 25,000 кадров/сек
Цветовое пространство : YUV
Субдискретизация насыщенности : 4:2:0
Битовая глубина : 8 бит
Тип развёртки : Прогрессивная
Бит/(Пиксели*Кадры) : 0.207
Размер потока : 995 Мбайт (89%)
Библиотека кодирования : x264 core 130 r2273 b3065e6
Настройки программы : cabac=1 / ref=10 / deblock=1:-2:-1 / analyse=0x3:0x113 / me=umh / subme=10 / psy=1 / psy_rd=1.00:0.00 / mixed_ref=1 / me_range=32 / chroma_me=1 / trellis=2 / 8x8dct=1 / cqm=0 / deadzone=21,11 / fast_pskip=1 / chroma_qp_offset=-2 / threads=6 / lookahead_threads=1 / sliced_threads=0 / nr=0 / decimate=0 / interlaced=0 / bluray_compat=0 / constrained_intra=0 / bframes=8 / b_pyramid=2 / b_adapt=2 / b_bias=0 / direct=3 / weightb=1 / open_gop=0 / weightp=2 / keyint=250 / keyint_min=25 / scenecut=40 / intra_refresh=0 / rc=2pass / mbtree=0 / bitrate=2004 / ratetol=1.0 / qcomp=0.60 / qpmin=0 / qpmax=69 / qpstep=4 / cplxblur=20.0 / qblur=0.5 / ip_ratio=1.40 / pb_ratio=1.30 / aq=1:1.00
Default : Да
Forced : Нет

Аудио
Идентификатор : 2
Формат : AC-3
Формат/Информация : Audio Coding 3
Расширение режима : CM (complete main)
Параметр Endianness формата : Big
Идентификатор кодека : A_AC3
Продолжительность : 1 ч. 10 м.
Вид битрейта : Постоянный
Битрейт : 192 Кбит/сек
Каналы : 2 канала
Расположение каналов : Front: L R
Частота : 48,0 КГц
Метод сжатия : С потерями
Размер потока : 97,4 Мбайт (9%)
Default : Да
Forced : Нет

Скриншоты

ЗалилЖанр: военный
DVB
Продолжительность: 01:10:56

Не требуется
AVPStudio ОценкаНикто ещё не поставил оценку КатегорияНаши фильмы Раздают0 Качают0 Сидер замечен04-07-2019 17:19:13 (7 дней назад) Добавлен02-10-2015 12:07:08 (46 месяцев назад) Размер1.09 GB (1169119894 Bytes)Страна: СССР
Год выпуска: 1985
Качество видео:Видео: 696->742x556 (4:3), 25 fps, H264 ~ 2004 kbps avg, 0.207 bit/pixel
Источник:Режиссер: Леон Сааков

Полный список актёров

В ролях:
Игорь Ливанов, Елена Кондратьева, Анатолий Грачёв, Анатолий Кузнецов, Виктор Корешков, Виктор Чеботарёв, Александр Савостьянов, Юрий Гусев, Любовь Соколова, Лилия Макеева...
Cубтитры: нет
Перевод:Производство: Мосфильм

Если у вас возникли проблемы с закачкой Репортаж с линии огня (1985) SATRip-AVC от New-Team, перейдите по ссылке - там вы найдете решение своей проблемы.

Категория: Наши фильмы

 

Скачать бесплатно Репортаж с линии огня (1985) SATRip-AVC от New-Team на пк

 

Информация
Посетители, находящиеся в группе Гости, не могут оставлять комментарии к данной публикации.
 
 
Скачать бесплатно Репортаж с линии огня (1985) SATRip-AVC от New-Team на пкCopyright © 2019 .