Скачать бесплатно Другие / The Others (2001) BDRip 1080p на пк






Информация о фильме
Студия: Canal+ [fr], Cruise/Wagner Productions, Dimension Films, Las Producciones del Escorpión S.L., Lucky Red, Miramax Films, Sociedad General de Cine (SOGECINE) S.A.
Видео: MPEG-4 AVC, 10.1 Мбит/с, 1920x1080
Жанр: Ужасы, триллер, детектив
Лефебр 17 Оценка10 из 10 (1 голосов, самая низкая оценка - 10, самая высокая - 10) КатегорияЗарубежные фильмы Раздают0 Качают0 Сидер замечен11-07-2019 19:19:13 (5 часов назад) Добавлен22-03-2013 15:40:33 (77 месяцев назад) Размер15.28 GB (16410227380 Bytes)Продолжительность: 01:44:13
Перевод: Профессиональный (полное дублирование) + Отдельными файлами: Профессиональный (многоголосый закадровый) + авторский (одноголосый) (Гаврилов) + авторский (одноголосый) (Живов) + оригинал

В ролях: Николь Кидман, Кит Аллен, Кристофер Экклстон, Мишель Фэйрли, Эрик Сайкс, Илэйн Кэссиди, Джеймс Бентли, Алакина Манн, Фионулла Фланаган, Рени Эшерсон

Субтитры: Русские, английские

Название: Другие
Страна: США, Франция, Италия, Испания
О фильме:
Красавица Грейс увозит своих больных детей в особняк на одном из островов у побережья Англии, чтобы дождаться окончания Второй Мировой Войны. Войны, с которой вернется ее муж. Ее дочь и сын страдают странным заболеванием: они не выносят прямого дневного света. Когда в доме появляются трое новых слуг, они должны выучить жизненно важное правило: все комнаты всегда должен быть в полумраке, нельзя открывать дверь, пока не заперта предыдущая. Строгому порядку, установленному Грейс, будет брошен вызов. Грейс, дети и те, кто их окружает, сделают решающий, роковой шаг.



Кодек: h.264
Год выхода: 2001
Оригинальное название: The Others
Семпл

MediaInfo:General
Unique ID : 250309982409191454187873744463276348512 (0xBC4FF2F4F25C91AE841C6BF722D91460)
Format : Matroska
File size : 7.85 GiB
Duration : 1h 44mn
Overall bit rate : 10.8 Mbps
Encoded date : UTC 2009-11-21 11:04:57
Writing application : mkvmerge v2.9.8 ('C'est le bon') built on Aug 13 2009 12:49:06
Writing library : libebml v0.7.7 + libmatroska v0.8.1

Video
ID : 1
Format : AVC
Format/Info : Advanced Video Codec
Format profile : High@L4.1
Format settings, CABAC : Yes
Format settings, ReFrames : 7 frames
Codec ID : V_MPEG4/ISO/AVC
Duration : 1h 44mn
Bit rate : 10.1 Mbps
Nominal bit rate : 10.7 Mbps
Width : 1 920 pixels
Height : 1 080 pixels
Display aspect ratio : 16:9
Frame rate : 23.976 fps
Color space : YUV
Chroma subsampling : 4:2:0
Bit depth : 8 bits
Scan type : Progressive
Bits/(Pixel*Frame) : 0.204
Stream size : 7.37 GiB (94%)
Writing library : x264 core 65 r999kMod cc51047
Encoding settings : cabac=1 / ref=7 / deblock=1:-3:-3 / analyse=0x3:0x133 / me=umh / subme=9 / psy_rd=1.0:0.0 / mixed_ref=1 / me_range=32 / chroma_me=1 / trellis=2 / 8x8dct=1 / cqm=0 / deadzone=21,11 / chroma_qp_offset=-2 / threads=2 / thread_queue=2 / nr=0 / decimate=1 / mbaff=0 / bframes=7 / b_pyramid=1 / b_adapt=1 / b_bias=0 / direct=1 / wpredb=1 / keyint=250 / keyint_min=25 / scenecut=40(pre) / rc=abr / bitrate=10700 / ratetol=1.0 / qcomp=0.60 / qpmin=10 / qpmax=51 / qpstep=4 / ip_ratio=1.40 / pb_ratio=1.30 / aq=1:1.00

Audio
ID : 2
Format : AC-3
Format/Info : Audio Coding 3
Mode extension : CM (complete main)
Codec ID : A_AC3
Duration : 1h 44mn
Bit rate mode : Constant
Bit rate : 448 Kbps
Channel(s) : 6 channels
Channel positions : Front: L C R, Side: L R, LFE
Sampling rate : 48.0 KHz
Bit depth : 16 bits
Compression mode : Lossy
Stream size : 334 MiB (4%)

Text #1
ID : 3
Format : UTF-8
Codec ID : S_TEXT/UTF8
Codec ID/Info : UTF-8 Plain Text

Text #2
ID : 4
Format : UTF-8
Codec ID : S_TEXT/UTF8
Codec ID/Info : UTF-8 Plain Text

Скриншоты ЗалилРежиссер: Алехандро Аменабар
Качество: BDRip 1080p
Звук:
Русский (AC3, 6 ch, 448 Кбит/с) / Профессиональный (полное дублирование)
Русский (AC3, 6 ch, 384 Кбит/с) / Профессиональный (многоголосый закадровый) - отдельным файлом
Русский (DTS-HD MA, 6 ch, 3958 Кбит/с) / Авторский (одноголосый) (Гаврилов) - отдельным файлом
Русский (DTS, 6 ch, 1510 Кбит/с ) / Авторский (одноголосый) (Живов) - отдельным файлом
Английский (DTS-HD MA, 6 ch, 3906 Кбит/с)
Английский (AC3, 6 ch, 448 Кбит/с)

Если у вас возникли проблемы с закачкой Другие / The Others (2001) BDRip 1080p, перейдите по ссылке - там вы найдете решение своей проблемы.

Категория: Зарубежные фильмы

 

Скачать бесплатно Другие / The Others (2001) BDRip 1080p на пк

 

Информация
Посетители, находящиеся в группе Гости, не могут оставлять комментарии к данной публикации.
 
 
Скачать бесплатно Другие / The Others (2001) BDRip 1080p на пкCopyright © 2019 .