Скачать бесплатно Veritas: В поисках истины / Veritas: The Quest [S01] (2003) SATRip | P на пк






Информация о фильме
Перевод: Профессиональный (многоголосый, закадровый)

Год выхода: 2003
Видео: XviD 1.2SMP, 640*480 (4:3), ~1000 kbps, 25.000 fps, 0.126 Bits/(Pixel*Frame)
Кодек: XviD / MP3
Оригинальное название: Veritas: The Quest
Качество: SATRip
Режиссер: Перри Лэнг, Томас Дж. Райт, Верн Джиллам
Жанр: драма, приключения
Продолжительность: ~42 минуты серия
Звук: mp3, 48000Hz, 2ch, 128 Kbps

Скриншоты
MIGeneral
Complete name : Veritas.The.Quest.s01e03.DVBRip.RUS.stereo.[1001cinema.ru].avi
Format : AVI
Format/Info : Audio Video Interleave
File size : 341 MiB
Duration : 41mn 25s
Overall bit rate : 1 150 Kbps
Writing application : VirtualDubMod 1.5.10.2 (build 2540/release)
Writing library : VirtualDubMod build 2540/release

Video
ID : 0
Format : MPEG-4 Visual
Format profile : Advanced Simple@L5
Format settings, BVOP : 1
Format settings, QPel : No
Format settings, GMC : No warppoints
Format settings, Matrix : Custom
Codec ID : XVID
Codec ID/Hint : XviD
Duration : 41mn 25s
Bit rate : 968 Kbps
Width : 640 pixels
Height : 480 pixels
Display aspect ratio : 4:3
Frame rate : 25.000 fps
Color space : YUV
Chroma subsampling : 4:2:0
Bit depth : 8 bits
Scan type : Progressive
Compression mode : Lossy
Bits/(Pixel*Frame) : 0.126
Stream size : 287 MiB (84%)
Writing library : XviD 1.2.0SMP (UTC 2006-01-08)

Audio
ID : 1
Format : MPEG Audio
Format version : Version 1
Format profile : Layer 3
Mode : Joint stereo
Mode extension : MS Stereo
Codec ID : 55
Codec ID/Hint : MP3
Duration : 41mn 25s
Bit rate mode : Constant
Bit rate : 128 Kbps
Channel(s) : 2 channels
Sampling rate : 48.0 KHz
Compression mode : Lossy
Stream size : 37.9 MiB (11%)
Alignment : Aligned on interleaves

ОценкаНикто ещё не поставил оценку КатегорияЗарубежные сериалы Раздают1 Качают0 Сидер замечен11-07-2019 22:19:12 (2 минуты назад) Добавлен19-10-2017 12:55:34 (21 месяц назад) Размер4.38 GB (4699744256 Bytes)В ролях: Алекс Картер, Райан Мерриман, Коби Смолдерс, Эрик Бальфур, Синтия Мартеллс, Арнольд Вослу, Эйдан Дивайн, Мэрибет Мэссет, Роджер Рис, Сергей Николич

О фильме:
Люди, которые занимаются археологией, бывают очень разными. Первый тип — «спокойные археологи»: преподают свой любимый предмет в университетах и иногда выезжают на раскопки, чтобы там методично смахивать пыль с какого-нибудь найденного артефакта. Второй тип — «отчаянные археологи», расхитители гробниц, рисковые охотники за древностями. Для них археология — это не нудное копание в земле, а вечная погоня за уникальными находками. Эта погоня происходит по всему миру, наперегонки с вооруженными соперниками, и ключом к обнаружению очередного желанного клада может стать всё что угодно — обрывок старинной карты, код или даже легенда. И часто им приходится орудовать не киркой и заступом, а пистолетом, если на пути встают враги.

Никко Зонд всегда полагал, что его отец, Соломон Зонд, относится к первому типу археологов, но когда Никко в очередной раз вышибли из престижной школы-пансиона, он узнал, как сильно ошибался на этот счёт. Соломон Зонд, потеряв всякую надежду дать сыну приличное образование, наконец-то рассказывает ему правду о себе и вводит его в свой рискованный бизнес.

Соломон Зонд возглавляет фонд «Веритас», спонсируемый анонимным основателем. Этот фонд создан специально для охоты за самыми ценными древностями. Под руководством Соломона Зонда находится отряд профессиональных археологов, готовых в любой момент сорваться в очередную экспедицию. Фонд «Веритас» посвящен матери Никко, отважной охотнице за древностями, пропавшей без вести как раз в тот момент, когда она стояла на пороге великого открытия, важного для всего человечества. Никко вместе с отцом продолжает дело матери, влившись в этот необычный коллективчик. Вскоре он получает первое боевое крещение, попав под пули и столкнувшись лицом к лицу с заклятыми конкурентами «Веритаса»…



Название: Veritas: В поисках истины
Страна: США

Если у вас возникли проблемы с закачкой Veritas: В поисках истины / Veritas: The Quest [S01] (2003) SATRip | P, перейдите по ссылке - там вы найдете решение своей проблемы.

Категория: Зарубежные сериалы

 

Скачать бесплатно Veritas: В поисках истины / Veritas: The Quest [S01] (2003) SATRip | P на пк

 

Информация
Посетители, находящиеся в группе Гости, не могут оставлять комментарии к данной публикации.
 
 
Скачать бесплатно Veritas: В поисках истины / Veritas: The Quest [S01] (2003) SATRip | P на пкCopyright © 2019 .