Скачать бесплатно Санкт-Петербург. Прогулка по городу белых ночей [RTG HD] (2012) HDTVRip 720p от FilmRus на пк






Видео: MPEG-4 AVC, 5500 Кбит/с, 1280x720, 25.000 кадр/с
Качество: HDTVRip 720p
Релиз: ЗалилО фильме: Архитектурный ансамбль стрелки Васильевского острова. Пронзающая небо игла шпиля Петропавловской крепости. Белоснежные колонны и суровые боги здания Биржи. Санкт-Петербург — один из красивейших городов мира. Но каждый, кто приезжает сюда, видит город по-своему. Выходные в Петербурге можно посвятить изучению российской истории и архитектуры, а можно - превратить в веселый праздник. Особенно летом, в период белых ночей. Когда Петербург и его гости, кажется, не успевают спать в бесконечной череде вечеринок, фестивалей, концертов.

Выпущено: Россия / RTG Production Studios

Год выпуска: 2012
Продолжительность: 00:51:43

Скриншоты




Инфо-файл:
F:Санкт-Петербург. Прогулка по городу белых ночей.mkv
General
Unique ID : 90462352854170149884526858373341240791 (0x440E6A58F9B4989330D80A2DA061DDD7)
Complete name : F:Санкт-Петербург. Прогулка по городу белых ночей.mkv
Format : Matroska
Format version : Version 2
File size : 2.05 GiB
Duration : 51mn 43s
Overall bit rate : 5 664 Kbps
Writing application : Lavf54.63.104
Writing library : Lavf54.63.104
Video #1
ID : 1
Format : AVC
Format/Info : Advanced Video Codec
Format profile : High@L3.1
Format settings, CABAC : Yes
Format settings, ReFrames : 2 frames
Codec ID : V_MPEG4/ISO/AVC
Duration : 51mn 43s
Bit rate : 5 500 Kbps
Width : 1 280 pixels
Height : 720 pixels
Display aspect ratio : 16:9
Frame rate mode : Variable
Frame rate : 25.000 fps
Color space : YUV
Chroma subsampling : 4:2:0
Bit depth : 8 bits
Scan type : Progressive
Bits/(Pixel*Frame) : 0.239
Stream size : 1.95 GiB (95%)
Writing library : x264 core 129
Encoding settings : cabac=1 / ref=2 / deblock=1:0:0 / analyse=0x3:0x113 / me=hex / subme=6 / psy=1 / psy_rd=1.00:0.00 / mixed_ref=1 / me_range=16 / chroma_me=1 / trellis=0 / 8x8dct=1 / cqm=0 / deadzone=21,11 / fast_pskip=1 / chroma_qp_offset=-2 / threads=4 / lookahead_threads=1 / sliced_threads=0 / nr=0 / decimate=1 / interlaced=0 / bluray_compat=0 / constrained_intra=0 / bframes=0 / weightp=2 / keyint=250 / keyint_min=25 / scenecut=40 / intra_refresh=0 / rc_lookahead=40 / rc=2pass / mbtree=1 / bitrate=5500 / ratetol=1.0 / qcomp=0.60 / qpmin=10 / qpmax=51 / qpstep=4 / cplxblur=20.0 / qblur=0.5 / ip_ratio=1.41 / aq=1:1.00
Default : Yes
Forced : No
Audio #2
ID : 2
Format : AC-3
Format/Info : Audio Coding 3
Mode extension : CM (complete main)
Format settings, Endianness : Big
Codec ID : A_AC3
Duration : 51mn 43s
Bit rate mode : Constant
Bit rate : 160 Kbps
Channel(s) : 2 channels
Channel positions : Front: L R
Sampling rate : 48.0 KHz
Bit depth : 16 bits
Compression mode : Lossy
Stream size : 59.2 MiB (3%)
Default : Yes
Forced : No



Аудио: Русский (AC3, 2 ch, 160 Кбит/с)
Оригинальное название: RTG HD. Санкт-Петербург. Прогулка по городу белых ночей
Жанр: Документальный, познавательный
ShinE_Ledy Оценка10 из 10 (1 голосов, самая низкая оценка - 10, самая высокая - 10) КатегорияТелевизор Раздают1 Качают0 Сидер замечен11-07-2019 6:19:12 (2 минуты назад) Добавлен14-07-2014 0:04:19 (61 месяц назад) Размер2.05 GB (2197168092 Bytes)

Если у вас возникли проблемы с закачкой Санкт-Петербург. Прогулка по городу белых ночей [RTG HD] (2012) HDTVRip 720p от FilmRus, перейдите по ссылке - там вы найдете решение своей проблемы.

Категория: Телевизор

 

Скачать бесплатно Санкт-Петербург. Прогулка по городу белых ночей [RTG HD] (2012) HDTVRip 720p от FilmRus на пк

 

Информация
Посетители, находящиеся в группе Гости, не могут оставлять комментарии к данной публикации.
 
 
Скачать бесплатно Санкт-Петербург. Прогулка по городу белых ночей [RTG HD] (2012) HDTVRip 720p от FilmRus на пкCopyright © 2019 .