Скачать бесплатно Александр Розенбаум - Юбилейный концерт (2011) DVBRip на пк




Год выхода: 2011
Жанр: Шансон
Формат видео: MPG
Качество: DVBRip
Продолжительность: 02:14:26«Гоп-стоп, он подошел из-за угла…», перефразировав один из первых «катушечных» хитов самого певца, можно сказать о неожиданном пришествии на сцену и в нашу жизнь человека, который по всем раскладам (семейные традиции, диплом мединститута) должен был стать врачом. Но не случилось. И вот уже почти тридцать лет, начиная с памятного выступления 14 октября 1983 года в Доме культуры МВД имени Дзержинского в родном Ленинграде, Александр Розенбаум выходит к нам наперевес с гитарой и ведет прямой, мужской разговор с самых разных сцен огромной страны – от Кремлевского Дворца до армейских красных уголков, актовых залов институтов и сельских клубов.
Человек со стержнем, неравнодушный ко всему происходящему в жизни мужчина и талантливый артист, однажды избрал свой образ и ни разу за всю карьеру не изменил ему. На сцене это и лирик, и дерзкий, может быть, иногда даже - жесткий человек с гитарой, воплощает в себе все качества, которые ассоциируются у всех у нас, со столь дефицитным ныне понятием - «настоящий мужик»!Треклист01.Гаврош
02.Глухари
03.Посвещение актрисе-Лайма Вайкуле
04.Упереться,не сломаться
05.Оттепель-Иосиф Кобзон и Гр."Республика"
06.Дорога жизни
07.Вещая судьба-Александр Маршал
08.Мечта блатного поэта
09.Гитара-Любовь Успенская
10.Братан
11.Посвещение-Андрей Макаревич
12.Песня еврейского портнова-Владимир Назаров-н.а.России
13.Размышление на прогулке
14.Бабья доля... - Хор им."Пятницкого"
15.Щегол
16.Каналы-Диана Арбенина
17.Ночной кабак
18.Дождь,над Невой туман-Михаил Шуфутинский
19.Барин
20.Снег и метель-Лариса Долина
21.Деревянная судьба-Надежда Бабкина и Анс."Русская песня"
22.Вальс-бостон
23.Москва-Нева - Валерий Сюткин
24.Гоп-стоп
25.Заходите к нам на огонёк-Владимир Винокур
26.Утки
27.Заключительные слова благодарности
28.КриденcАудио: 48,0 КГц, MPEG-1 Audio layer 2, 2 ch, ~256 Кбит/секMediaInfoОбщее
Полное имя : Q:КОНЦЕРТЫ & КЛИПЫЮбилейный концерт Александра Розенбаума_DVB by CLIPMAN.mpg
Формат : MPEG-PS
Размер файла : 5,38 Гбайт
Продолжительность : 2 ч. 14 м.
Режим общего битрейта : Переменный
Общий поток : 5729 Кбит/сек
Библиотека кодирования : (c) 1997-2004 Womble Multimedia, Inc. / MPEG-VCR V3.14 (06/2004) / Jun 27 2004

Видео
Идентификатор : 224 (0xE0)
Формат : MPEG Video
Версия формата : Version 2
Профиль формата : Main@Main
Параметр BVOP формата : Да
Параметр матрицы формата : Выборочная
Продолжительность : 2 ч. 14 м.
Вид битрейта : Переменный
Битрейт : 5359 Кбит/сек
Максимальный битрейт : 10000 Кбит/сек
Ширина : 720 пикселей
Высота : 576 пикселей
Соотношение сторон : 4:3
Частота кадров : 25,000 кадров/сек
Стандарт вещания : PAL
Цветовое пространство : YUV
Субдискретизация насыщенности : 4:2:0
Битовая глубина : 8 бит
Тип развёртки : Чересстрочная
Порядок развёртки : Верхнее поле первое
Метод сжатия : С потерями
Бит/(Пиксели*Кадры) : 0.517
Размер потока : 5,03 Гбайт (94%)
Библиотека кодирования : (c) 1997-2004 Womble Multimedia, Inc. / MPEG-VCR V3.14 (06/2004) / Jun 27 2004

Аудио
Идентификатор : 192 (0xC0)
Формат : MPEG Audio
Версия формата : Version 1
Профиль формата : Layer 2
Продолжительность : 2 ч. 14 м.
Вид битрейта : Постоянный
Битрейт : 256 Кбит/сек
Каналы : 2 канала
Частота : 48,0 КГц
Метод сжатия : С потерями
Задержка видео : -40 мс.
Размер потока : 246 Мбайт (4%)

Скриншоты













Видео: PAL, 720x576 (4:3), 25,000 кадров/сек, MPEG-2 Video, ~5359 Кбит/сек avg, 0.517 bit/pixel
Релиз ЗалилSergey Zh. Оценка10 из 10 (2 голосов, самая низкая оценка - 10, самая высокая - 10) КатегорияМузыка Раздают0 Качают1 Сидер замечен16-06-2019 14:19:13 (25 дней назад) Добавлен26-03-2012 22:06:46 (89 месяцев назад) Размер5.38 GB (5776519172 Bytes)Александр РозенбаумЮбилейный концертСтрана: Россия

Если у вас возникли проблемы с закачкой Александр Розенбаум - Юбилейный концерт (2011) DVBRip, перейдите по ссылке - там вы найдете решение своей проблемы.

Категория: Музыка

 

Скачать бесплатно Александр Розенбаум - Юбилейный концерт (2011) DVBRip на пк

 

Информация
Посетители, находящиеся в группе Гости, не могут оставлять комментарии к данной публикации.
 
 
Скачать бесплатно Александр Розенбаум - Юбилейный концерт (2011) DVBRip на пкCopyright © 2019 .