Скачать бесплатно Следы от ботинка / Boot Tracks (2012) HDRip от Flash | L2 на пк




Следы от ботинка/ Boot Tracks



Cубтитры: нет
Описание: Недавно освободившийся из тюрьмы Чарли Ранкин ищет способ отомстить тюремному надзирателю Уильяму Петтигрю по кличке Будда. По пути он встречает утонченную, но тем не менее весьма опытную Флоренс Джейн. Вместе они пускаются в путешествие, которое постепенно отклоняется первоначальной цели и ведет к непредсказуемой развязке.

HDRipВидео: 688x384, XviD, 23.976 fps, 997 Kbps, Bits/Pixel 0.157
Rip By:В ролях: Стивен Дорфф, Мишель Монахэн, Уиллем Дефо, Тара Бак, Роберт ЛаСардо, Кэрри Розэлл, Джайда Диамонд, Адам Эпштейн, Марк Шерман, Аньес Херрманн...

(исходник BDRip 720р)
Качество видео:Аудио: MP3, 48.0 KHz, 2 ch, 128kbps
Отчёт MediaInfo
General
Complete name : D:Docume and SettingsAdminМои документыDownloadsSledy.ot.botinka.2012.HDRip By _Flash.avi
Format : AVI
Format/Info : Audio Video Interleave
File size : 743 MiB
Duration : 1h 31mn
Overall bit rate : 1 134 Kbps
Writing application : VirtualDubMod 1.5.10.3 | www.virtualdub-fr.org || (build 2550/release)
Writing library : VirtualDubMod build 2550/release

Video
ID : 0
Format : MPEG-4 Visual
Format profile : Advanced Simple@L5
Format settings, BVOP : 1
Format settings, QPel : No
Format settings, GMC : No warppoints
Format settings, Matrix : Custom
Codec ID : XVID
Codec ID/Hint : XviD
Duration : 1h 31mn
Bit rate : 997 Kbps
Width : 688 pixels
Height : 384 pixels
Display aspect ratio : 16:9
Frame rate : 23.976 fps
Color space : YUV
Chroma subsampling : 4:2:0
Bit depth : 8 bits
Scan type : Progressive
Compression mode : Lossy
Bits/(Pixel*Frame) : 0.157
Stream size : 653 MiB (88%)
Writing library : XviD 64

Audio
ID : 1
Format : MPEG Audio
Format version : Version 1
Format profile : Layer 3
Codec ID : 55
Codec ID/Hint : MP3
Duration : 1h 31mn
Bit rate mode : Constant
Bit rate : 128 Kbps
Channel(s) : 2 channels
Sampling rate : 48.0 KHz
Compression mode : Lossy
Stream size : 83.9 MiB (11%)
Alignment : Aligned on interleaves
Interleave, duration : 42 ms (1.00 video frame)
Interleave, preload duration : 504 ms
Writing library : L3.99r
Encoding settings : -m s -V 4 -q 2 -lowpass 17 -b 128



Скриншоты

ЗалилПродолжительность: 01:31:36

Flash_ ОценкаНикто ещё не поставил оценку КатегорияЗарубежные фильмы Раздают0 Качают1 Сидер замечен28-01-2017 14:19:06 (29 месяцев назад) Добавлен29-12-2012 20:59:55 (79 месяцев назад) Размер742.99 MB (779077632 Bytes)_Flash





Страна: США / Deed Films
Жанр: криминал, драма
Режиссер: Джейкобсон Дэвид / Jacobson David

Год выпуска: 2012
Перевод: Любительский (двухголосый закадровый)
Формат видео: AVI

Если у вас возникли проблемы с закачкой Следы от ботинка / Boot Tracks (2012) HDRip от Flash | L2, перейдите по ссылке - там вы найдете решение своей проблемы.

Категория: Зарубежные фильмы

 

Скачать бесплатно Следы от ботинка / Boot Tracks (2012) HDRip от Flash | L2 на пк

 

Информация
Посетители, находящиеся в группе Гости, не могут оставлять комментарии к данной публикации.
 
 
Скачать бесплатно Следы от ботинка / Boot Tracks (2012) HDRip от Flash | L2 на пкCopyright © 2019 .