Скачать бесплатно Тайная любовь / Испытание [01-16 из 16] (2019) WEB-DLRip от GeneralFilm на пк






Информация о фильме
Оригинальное название: Тайная любовь / Испытание
Cубтитры: нет

Скриншоты

MediaInfo
General
Complete name : D:RazdachiTajnaja.Ljubovj.2018.WEB-DLRip.GeneralFilmTajnaja.Ljubovj.e01.avi
Format : AVI
Format/Info : Audio Video Interleave
File size : 557 MiB
Duration : 44 min 22 s
Overall bit rate : 1 755 kb/s
Writing application : VirtualDubMod 1.5.10.3 | www.virtualdub-fr.org || (build 2550/release)
Writing library : VirtualDubMod build 2550/release

Video
ID : 0
Format : MPEG-4 Visual
Format profile : Advanced Simple@L5
Format settings : BVOP1 / Custom Matrix
Format settings, BVOP : 1
Format settings, QPel : No
Format settings, GMC : No warppoints
Format settings, Matrix : Custom
Codec ID : XVID
Codec ID/Hint : XviD
Duration : 44 min 22 s
Bit rate : 1 553 kb/s
Width : 720 pixels
Height : 400 pixels
Display aspect ratio : 16:9
Frame rate : 25.000 FPS
Color space : YUV
Chroma subsampling : 4:2:0
Bit depth : 8 bits
Scan type : Progressive
Compression mode : Lossy
Bits/(Pixel*Frame) : 0.216
Stream size : 493 MiB (89%)
Writing library : XviD 73

Audio
ID : 1
Format : AC-3
Format/Info : Audio Coding 3
Commercial name : Dolby Digital
Codec ID : 2000
Duration : 44 min 22 s
Bit rate mode : Constant
Bit rate : 192 kb/s
Channel(s) : 2 channels
Channel layout : L R
Sampling rate : 48.0 kHz
Frame rate : 31.250 FPS (1536 SPF)
Bit depth : 16 bits
Compression mode : Lossy
Stream size : 60.9 MiB (11%)
Alignment : Split accross interleaves
Interleave, duration : 40 ms (1.00 video frame)
Interleave, preload duratio : 500 ms
Service kind : Complete Main

Перевод: Не требуется
Аудио: 48.0 kHz, AC3, 2/0 ch, 192 kbps
Год выпуска: 2019
Релиз от: Залилvsobbol Оценка9 из 10 (1 голосов, самая низкая оценка - 9, самая высокая - 9) КатегорияНаши сериалы Раздают102 Качают25 Сидер замечен24-06-2019 15:19:14 (2 минуты назад) Добавлен24-01-2019 23:07:47 (5 месяцев назад) Размер8.70 GB (9346869248 Bytes)Качество: WEB-DLRip
В ролях: Дана Абызова, Антон Денисенко, Анатолий Ященко, Николай Боклан, Олег Примогенов, Ирина Мельник

Режиссер: Анатолий Григорьев
О фильме: Cчастливая жизнь Любы Зацепиной рушится в тот самый день, когда ее любимый, будущий прокурор Юрий Браницкий сделал ей долгожданное предложение выйти за него замуж. Вечером, во время страшноголивня он насмерть сбивает беременную женщину. Если Юрий признается в совершении наезда, его прокурорская карьера будет уничтожена, поэтому Люба берет на себя чужую вину и садится в тюрьму. Она даже не подозревает, с кем с этого рокового дня вступила в поединок не на жизнь…



Выпущено: Россия, Украина, «Star Media»
Продолжительность: 16 х ~ 00:44:00
Жанр: Мелодрама
Видео: XviD build 73, 720x400 (16:9), 25.000 fps, ~ 1550 Kbps (~ 0.215 bit/pixel)

Если у вас возникли проблемы с закачкой Тайная любовь / Испытание [01-16 из 16] (2019) WEB-DLRip от GeneralFilm, перейдите по ссылке - там вы найдете решение своей проблемы.

Категория: Наши сериалы

 

Скачать бесплатно Тайная любовь / Испытание [01-16 из 16] (2019) WEB-DLRip от GeneralFilm на пк

 

Информация
Посетители, находящиеся в группе Гости, не могут оставлять комментарии к данной публикации.
 
 
Скачать бесплатно Тайная любовь / Испытание [01-16 из 16] (2019) WEB-DLRip от GeneralFilm на пкCopyright © 2019 .