Скачать бесплатно Демидовы (1983) DVD5 на пк






Информация о фильме
Аудио: AC3, 2 ch, 192 Kbps, CBR

Продолжительность: 02:27:20
Описание:
Историческая сага о династии первых промышленников в России. В основе сюжета первой серии лежит история взаимоотношений Демидовых с Петром I. В короткий срок по указанию Петра Акинфий Демидов наладил производство чугуна, пушек, что позволило России одержать ряд исторических побед.Действие второй серии развивается в период царствования Анны Иоанновны, когда Акинфий Демидов стал полновластным хозяином на Урале и сумел противопоставить себя жестокому и хитрому правителю Бирону.



Режиссер: Ярополк Лапшин
Релиз от: smithland

Дополнительная информация:Собственная реставрация.
Проведена работа по коррекции и очистке видео.
Меню отсутствует.Mediainfo:General
Complete name : Демидовы
Format : MPEG-PS
File size : 4.06 GiB
Duration : 2h 27mn
Overall bit rate mode : Variable
Overall bit rate : 3 947 Kbps

Video
ID : 224 (0xE0)
Format : MPEG Video
Format version : Version 2
Format profile : Main@Main
Format settings, BVOP : Yes
Format settings, Matrix : Default
Format settings, GOP : M=3, N=12
Duration : 2h 27mn
Bit rate mode : Variable
Bit rate : 3 677 Kbps
Maximum bit rate : 9 200 Kbps
Width : 704 pixels
Height : 576 pixels
Display aspect ratio : 4:3
Frame rate : 25.000 fps
Standard : Component
Color space : YUV
Chroma subsampling : 4:2:0
Bit depth : 8 bits
Scan type : Progressive
Compression mode : Lossy
Bits/(Pixel*Frame) : 0.363
Time code of first frame : 00:00:00:00
Time code source : Group of pictures header
GOP, Open/Closed : Closed
Stream size : 3.78 GiB (93%)
Color primaries : BT.601 PAL
Transfer characteristics : BT.470 System B, BT.470 System G
Matrix coefficients : BT.601

Audio
ID : 189 (0xBD)-128 (0x80)
Format : AC-3
Format/Info : Audio Coding 3
Mode extension : CM (complete main)
Format settings, Endianness : Big
Muxing mode : DVD-Video
Duration : 2h 27mn
Bit rate mode : Constant
Bit rate : 192 Kbps
Channel(s) : 2 channels
Channel positions : Front: L R
Sampling rate : 48.0 KHz
Compression mode : Lossy
Stream size : 202 MiB (5%)Скриншоты ОценкаНикто ещё не поставил оценку КатегорияНаши фильмы Раздают1 Качают0 Сидер замечен24-06-2019 7:19:12 (4 часа назад) Добавлен03-12-2016 21:03:00 (31 месяц назад) Размер4.06 GB (4361779200 Bytes)Видео: MPEG-2, 704x576@768x576, ~3677 Kbps
Жанр: Биография, исторический
Актеры: Евгений Евстигнеев, Вадим Спиридонов, Александр Лазарев, Леонид Куравлев, Михаил Козаков, Татьяна Ташкова, Любовь Полехина, Людмила Чурсина, Лидия Федосеева-Шукшина, Валерий Золотухин

Производство: СССР, Свердловская киностудия
Качество видео: DVD5

Если у вас возникли проблемы с закачкой Демидовы (1983) DVD5, перейдите по ссылке - там вы найдете решение своей проблемы.

Категория: Наши фильмы

 

Скачать бесплатно Демидовы (1983) DVD5 на пк

 

Информация
Посетители, находящиеся в группе Гости, не могут оставлять комментарии к данной публикации.
 
 
Скачать бесплатно Демидовы (1983) DVD5 на пкCopyright © 2019 .