Скачать бесплатно Туман (2010) DVDRip от PowerTracker на пк






Видео: кодек: XviD, размер кадра: 720x352, битрейт: 1608 кб/с, bit/pixel: 0.254
Аудио: язык: Русский , перевод: оригинал, кодек: AC3 2.0, битрейт: 448 кб/с

Качество видео: DVDRip (рип с DVD9)
9 мая 2010



В ролях: Игорь Шмаков, Василий Ракша, Артем Крестников, Григорий Калинин, Евгений Куршинский, Дмитрий Росляков, Вячеслав Буцков, Светлана Устинова, Алексей Марков, Илья Глинников, Родион Галюченко, Дмитрий Сергин, Иван Лапин, Алексей Ильин и др.

Автор рипа:

MediaInfoОбщее
Формат : AVI
Формат/Информация : Audio Video Interleave
Профиль формата : OpenDML
Размер файла : 2,19 Гбайт
Продолжительность : 2 ч. 31 м.
Общий поток : 2068 Кбит/сек
Название фильма : Туман (2010) DVDRip
Режиссёр : tise
Программа кодирования : VirtualDubModRus 1.5.10.2 (build 2542/release)
Библиотека кодирования : VirtualDubMod build 2542/release
Правообладатель : www.powertracker.org

Видео
Идентификатор : 0
Формат : MPEG-4 Visual
Профиль формата : Advanced Simple@L5
Параметр BVOP формата : 1
Параметр QPel формата : Нет
Параметр GMC формата : Без точки перехода
Параметр матрицы формата : Default (MPEG)
Идентификатор кодека : XVID
Идентификатор кодека/Подсказка : XviD
Продолжительность : 2 ч. 31 м.
Битрейт : 1608 Кбит/сек
Ширина : 720 пикселей
Высота : 352 пикселя
Соотношение сторон : 16:9
Частота кадров : 25,000 кадров/сек
Цветовое пространство : YUV
Субдискретизация насыщенности : 4:2:0
Битовая глубина : 8 бит
Тип развёртки : Прогрессивная
Метод сжатия : С потерями
Бит/(Пиксели*Кадры) : 0.254
Размер потока : 1,70 Гбайт (78%)
Библиотека кодирования : XviD 1.2.1 (UTC 2008-12-04)

Аудио
Идентификатор : 1
Формат : AC-3
Формат/Информация : Audio Coding 3
Расширение режима : CM (complete main)
Идентификатор кодека : 2000
Продолжительность : 2 ч. 31 м.
Вид битрейта : Постоянный
Битрейт : 448 Кбит/сек
Каналы : 2 канала
Расположение каналов : Front: L R
Частота : 48,0 КГц
Битовая глубина : 16 бит
Метод сжатия : С потерями
Размер потока : 485 Мбайт (22%)
Выравнивание : Разделение по промежуткам
Продолжительность промежутка : 40 мс. (1,00 видеокадр)
Время предзагрузки промежутка : 500 мс.
Скриншоты
ЗалилСтрана: Россия
Продолжительность: 02:31:16
Сюжет фильма: Отряд молодых бойцов Российской Армии отрывается от основного строя во время марш-броска, дабы сократить путь, бежит наперерез, но попадает в туман, который переносит его в прошлое, в годы Великой Отечественной войны. Ребята, видевшие войну только в кино, попадают в лапы безжалостных событий того времени. Все на грани: храбрость, страх, любовь, ненависть, жизнь, смерть. И некогда задавать вопросы. Живи, дерись за Родину — она одна на все времена.

Жанр: фантастика, драма, военный
Режиссер: Иван Шурховецкий, Артем Аксененко
tise Оценка9.7 из 10 (3 голосов, самая низкая оценка - 9, самая высокая - 10) КатегорияНаши фильмы Раздают0 Качают0 Сидер замечен24-06-2019 1:19:12 (3 часа назад) Добавлен06-03-2012 23:28:11 (89 месяцев назад) Размер2.19 GB (2346883072 Bytes)Релиз группы: Российская премьера:

Если у вас возникли проблемы с закачкой Туман (2010) DVDRip от PowerTracker, перейдите по ссылке - там вы найдете решение своей проблемы.

Категория: Наши фильмы

 

Скачать бесплатно Туман (2010) DVDRip от PowerTracker на пк

 

Информация
Посетители, находящиеся в группе Гости, не могут оставлять комментарии к данной публикации.
 
 
Скачать бесплатно Туман (2010) DVDRip от PowerTracker на пкCopyright © 2019 .