Скачать бесплатно В квадрате 45 (1955) SATRip от New-Team на пк





В ролях:
Всеволод Платов, Маргарита Лифанова, Владимир Гуляев, Иван Кузнецов, Николай Хрящиков, Валентин Брылеев, Михаил Майоров, Борис Битюков, Татьяна Забродина, Иван Соловьёв, Владимир Зельдин, Иван Воронов, Александр Полинский...
SATRip
Описание:
"Шпионский" фильм о летчиках и парашютистах пожарной части приграничной полосы, помогающих пограничникам в поимке незваных гостей.
Недалеко от границы расположилась авиационная база по охране лесов. Однажды команда парашютистов-пожарных вылетела на тушение пожара. Новичок Валентин Волгин проявил нерешительность - и запоздал с прыжком. Герой, мучительно переживая первую неудачу, стал избегать взглядов инструктора Ирины Алеевой. А когда команда получила задание по оказанию помощи пограничникам, Валентин после напряженной погони по пылающему лесу настиг и помог задержать диверсанта.



Полный список актёров

Аудио: 48 kHz, Dolby Digital AC3 2.0, 192 kbps

Год выпуска: 1955
Видео: 656x496 (4:3), 25 fps, XviD ~ 1415 kbps avg, 0.174 bit/pixel
Источник:Раздача от:
MediaInfo
Общее
Полное имя : V.kvadrate.45.1955.SATRip_[New-team]_by_AVP_Studio.avi
Формат : AVI
Формат/Информация : Audio Video Interleave
Размер файла : 744 Мбайт
Продолжительность : 1 ч. 4 м.
Общий поток : 1616 Кбит/сек
Программа кодирования : VirtualDubMod 1.5.10.3 | www.virtualdub-fr.org || (build 2550/release)
Библиотека кодирования : VirtualDubMod build 2550/release

Видео
Идентификатор : 0
Формат : MPEG-4 Visual
Профиль формата : Advanced Simple@L5
Параметр BVOP формата : 1
Параметр QPel формата : Нет
Параметр GMC формата : Без точки перехода
Параметр матрицы формата : Выборочная
Идентификатор кодека : XVID
Идентификатор кодека/Подсказка : XviD
Продолжительность : 1 ч. 4 м.
Битрейт : 1415 Кбит/сек
Ширина : 656 пикселей
Высота : 496 пикселей
Соотношение сторон : 4:3
Частота кадров : 25,000 кадров/сек
Цветовое пространство : YUV
Субдискретизация насыщенности : 4:2:0
Битовая глубина : 8 бит
Тип развёртки : Прогрессивная
Метод сжатия : С потерями
Бит/(Пиксели*Кадры) : 0.174
Размер потока : 651 Мбайт (88%)
Библиотека кодирования : XviD 1.2.1 (UTC 2008-12-04)

Аудио
Идентификатор : 1
Формат : AC-3
Формат/Информация : Audio Coding 3
Расширение режима : CM (complete main)
Параметр Endianness формата : Big
Идентификатор кодека : 2000
Продолжительность : 1 ч. 4 м.
Вид битрейта : Постоянный
Битрейт : 192 Кбит/сек
Каналы : 2 канала
Расположение каналов : Front: L R
Частота : 48,0 КГц
Частота кадров : 31,250 кадров/сек (1536 spf)
Метод сжатия : С потерями
Размер потока : 88,4 Мбайт (12%)
Выравнивание : Разделение по промежуткам
Продолжительность промежутка : 40 мс. (1,00 видеокадр)
Время предзагрузки промежутка : 500 мс

Скриншоты

ЗалилСтрана: СССР
Формат видео: AVI

Перевод:Продолжительность: 01:04:22

Режиссер: Юрий Вышинский

Оригинальная аудиодорожка: русский

Качество видео:DVB
Cубтитры: нет
Не требуется
AVPStudio ОценкаНикто ещё не поставил оценку КатегорияНаши фильмы Раздают1 Качают0 Сидер замечен12-06-2019 17:19:13 (18 часов назад) Добавлен18-08-2016 10:24:22 (34 месяца назад) Размер744.27 MB (780425216 Bytes)Жанр: приключения, шпионский фильм
Производство: Мосфильм

Если у вас возникли проблемы с закачкой В квадрате 45 (1955) SATRip от New-Team, перейдите по ссылке - там вы найдете решение своей проблемы.

Категория: Наши фильмы

 

Скачать бесплатно В квадрате 45 (1955) SATRip от New-Team на пк

 

Информация
Посетители, находящиеся в группе Гости, не могут оставлять комментарии к данной публикации.
 
 
Скачать бесплатно В квадрате 45 (1955) SATRip от New-Team на пкCopyright © 2019 .