Скачать бесплатно Король Лев 2: Гордость Симбы / The Lion King II: Simba's Pride (1998) HDRip-AVC от ExKinoRay | D на пк






Информация о фильме:
Видео: MPEG-4 AVC, 752x424, ~ 1212 Кбит/с
Жанр: мультфильм, приключения, драма, комедия
Субтитры: Русские, английские

MIОбщее
Уникальный идентификатор : 225415695271935175446193059111454940270 (0xA9957BD6C599F672916B7B185D849C6E)
Полное имя : D:MOVIESThe Lion King II.1998.ExKinoRay.mkv
Формат : Matroska
Версия формата : Version 4 / Version 2
Размер файла : 746 Мбайт
Продолжительность : 1 ч. 20 м.
Общий поток : 1290 Кбит/сек
Дата кодирования : UTC 2018-04-08 16:29:41
Программа кодирования : mkvmerge v15.0.0 ('Duel with the Devil') 64-bit
Библиотека кодирования : libebml v1.3.5 + libmatroska v1.4.5

Видео
Идентификатор : 1
Формат : AVC
Формат/Информация : Advanced Video Codec
Профиль формата : High@L4.1
Параметр CABAC формата : Да
Параметр RefFrames формата : 10 кадров
Идентификатор кодека : V_MPEG4/ISO/AVC
Продолжительность : 1 ч. 20 м.
Битрейт : 1212 Кбит/сек
Ширина : 752 пикселя
Высота : 424 пикселя
Соотношение сторон : 16:9
Режим частоты кадров : Постоянный
Частота кадров : 23,976 (24000/1001) кадра/сек
Цветовое пространство : YUV
Субдискретизация насыщенности : 4:2:0
Битовая глубина : 8 бит
Тип развёртки : Прогрессивная
Бит/(Пиксели*Кадры) : 0.159
Размер потока : 701 Мбайт (94%)
Библиотека кодирования : x264 core 155 r2901 7d0ff22
Настройки программы : cabac=1 / ref=10 / deblock=1:-3:-3 / analyse=0x3:0x133 / me=umh / subme=11 / psy=1 / psy_rd=1.00:0.13 / mixed_ref=1 / me_range=32 / chroma_me=1 / trellis=2 / 8x8dct=1 / cqm=0 / deadzone=21,11 / fast_pskip=0 / chroma_qp_offset=-3 / threads=6 / lookahead_threads=1 / sliced_threads=0 / nr=0 / decimate=0 / interlaced=0 / bluray_compat=0 / constrained_intra=0 / bframes=10 / b_pyramid=2 / b_adapt=2 / b_bias=0 / direct=3 / weightb=1 / open_gop=0 / weightp=2 / keyint=240 / keyint_min=23 / scenecut=40 / intra_refresh=0 / rc_lookahead=40 / rc=2pass / mbtree=1 / bitrate=1212 / ratetol=1.0 / qcomp=0.60 / qpmin=0 / qpmax=69 / qpstep=4 / cplxblur=20.0 / qblur=0.5 / vbv_maxrate=50000 / vbv_bufsize=62500 / nal_hrd=none / filler=0 / ip_ratio=1.40 / aq=3:1.00
Default : Да
Forced : Нет

Аудио
Идентификатор : 2
Формат : AAC
Формат/Информация : Advanced Audio Codec
Профиль формата : HE-AAC / LC
Идентификатор кодека : A_AAC
Продолжительность : 1 ч. 20 м.
Битрейт : 76,0 Кбит/сек
Каналы : 2 канала
Расположение каналов : Front: L R
Частота : 48,0 КГц / 24,0 КГц
Частота кадров : 23,438 кадра/сек (1024 SPF)
Метод сжатия : С потерями
Задержка видео : 31 мс.
Размер потока : 43,9 Мбайт (6%)
Default : Да
Forced : Нет

Текст #1
Идентификатор : 3
Формат : UTF-8
Идентификатор кодека : S_TEXT/UTF8
Идентификатор кодека/Информация : UTF-8 Plain Text
Продолжительность : 1 ч. 3 м.
Битрейт : 16 бит/сек
ElementCount : 199
Размер потока : 7,91 Кбайт (0%)
Язык : Russian
Default : Да
Forced : Нет

Текст #2
Идентификатор : 4
Формат : UTF-8
Идентификатор кодека : S_TEXT/UTF8
Идентификатор кодека/Информация : UTF-8 Plain Text
Продолжительность : 1 ч. 14 м.
Битрейт : 60 бит/сек
ElementCount : 704
Размер потока : 33,0 Кбайт (0%)
Язык : Russian
Default : Нет
Forced : Нет

Текст #3
Идентификатор : 5
Формат : UTF-8
Идентификатор кодека : S_TEXT/UTF8
Идентификатор кодека/Информация : UTF-8 Plain Text
Продолжительность : 1 ч. 14 м.
Битрейт : 41 бит/сек
ElementCount : 851
Размер потока : 22,7 Кбайт (0%)
Язык : English
Default : Нет
Forced : Нет

Меню
00:00:00.000 : en:00:00:00.000
00:03:33.129 : en:00:03:33.129
00:05:39.005 : en:00:05:39.005
00:09:16.055 : en:00:09:16.055
00:14:21.068 : en:00:14:21.068
00:19:09.690 : en:00:19:09.690
00:21:48.181 : en:00:21:48.181
00:26:53.903 : en:00:26:53.903
00:31:02.944 : en:00:31:02.944
00:33:00.478 : en:00:33:00.478
00:39:56.268 : en:00:39:56.268
00:44:47.101 : en:00:44:47.101
00:45:40.446 : en:00:45:40.446
00:50:37.951 : en:00:50:37.951
00:56:15.830 : en:00:56:15.830
00:59:51.546 : en:00:59:51.546
01:01:24.389 : en:01:01:24.389
01:05:01.439 : en:01:05:01.439
01:12:54.119 : en:01:12:54.119
01:15:20.515 : en:01:15:20.515
Скриншоты


Перевод: Профессиональный (полное дублирование)

Название: Король-лев 2: Гордость Симбы
В ролях: Мэтью Бродерик, Моира Келли, Майкл Хорн, Нив Кэмпбелл, Натан Лэйн, Эрни Сабелла, Раен О’Донахью, Джейсон Марсден, Сюзанн Плешет, Энди Дик, Лэйси Чэберт, Дженнифер Лейн.

О фильме :
Много времени утекло с тех пор, как лев Симба сверг своего злого дядю Скара и вернул трон короля саванны. У него и королевы Налы уже подрастает дочь -принцесса Киара. Однако порученная легкомысленным заботам наших старых знакомых Тимона и Пумбы, проказливая и непослушная Киара пока никак не похожа на будущую королеву. Однажды сбежав в Запретную Землю, она встречает там львенка Кову, который становится ее лучшим другом. Да только принцесса не знает, что эта дружба может стоить ей короны! Кову - наследник Скара, и пусть он не пошел в старого интригана, его мать Зира спит и видит, как бы усадить сына на трон. И чем прочнее дружба между Киарой и Кову, тем гуще тучи над племенем Симбы...



Аудио: AAC-HE, 2 ch, ~ 76 Кбит/с
Формат: MKV
Режиссер: Даррел Руни, Роб ЛаДука
Качество: HDRip-AVC
Выпущено: США, Австралия
Продолжительность: 01:20:49
Релиз от:
Залилsany771 Оценка10 из 10 (3 голосов, самая низкая оценка - 10, самая высокая - 10) КатегорияМультипликация Раздают29 Качают1 Сидер замечен12-06-2019 11:19:11 (2 минуты назад) Добавлен08-04-2018 19:32:52 (14 месяца назад) Размер745.91 MB (782147188 Bytes)Оригинальное название: The Lion King II: Simba's Pride
Год выхода: 1998

Если у вас возникли проблемы с закачкой Король Лев 2: Гордость Симбы / The Lion King II: Simba's Pride (1998) HDRip-AVC от ExKinoRay | D, перейдите по ссылке - там вы найдете решение своей проблемы.

Категория: Мультипликация

 

Скачать бесплатно Король Лев 2: Гордость Симбы / The Lion King II: Simba's Pride (1998) HDRip-AVC от ExKinoRay | D на пк

 

Информация
Посетители, находящиеся в группе Гости, не могут оставлять комментарии к данной публикации.
 
 
Скачать бесплатно Король Лев 2: Гордость Симбы / The Lion King II: Simba's Pride (1998) HDRip-AVC от ExKinoRay | D на пкCopyright © 2019 .