Скачать бесплатно Стажер / The Intern (2015) BDRip 720p | Лицензия на пк




+ Стажер / The Intern (2015) BDRip 1080p
+ Стажер / The Intern (2015) BDRemux 1080p



Информация о фильме
В ролях: Роберт Де Ниро, Энн Хэтэуэй, Рене Руссо, Андерс Холм, ДжоДжо Кушнер, Эндрю Рэннеллс, Адам Дивайн, Илан Кригсфелд, Зак Перлман, Джейсон Орли

Aудио#1: Russian: 48 kHz, AC3, 3/2 (L,C,R,l,r) + LFE ch, ~640.00 kbps avg |Дубляж, Blu-ray EUR|
Оригинальное название: The Intern
Перевод: Профессиональный (дублированный) Blu-ray EUR

Название: Стажер
Формат: Matroska
Aудио#2: English: 48 kHz, AC3, 3/2 (L,C,R,l,r) + LFE ch, ~640.00 kbps avg
Субтитры: Russian (Forced, iTunes), Russian (iTunes), English

***Сохранены оригинальные главы как на Blu-ray.
***Видеоряд - CRiSC, сборка рипа - bog3417.

Знаете ли Вы, что...Первоначально на роль Джулс рассматривалась Риз Уизерспун, но она покинула проект, и роль в итоге досталась Энн Хэтэуэй.
Прежде чем предложить роль Бена Уитакера Роберту Де Ниро, Нэнси Майерс предлагала ее Джеку Николсону.
В одной из сцен разговора Джулс Остин с Кэмероном можно заметить, что мобильный телефон последнего не находится в режиме «разговор», вместо этого на экране устройства открыт главный экран.MIОбщее
Уникальный идентификатор : 212414842987809613034628497587163956537 (0x9FCD9C5525DB8D0CB5C9BB8AD2810539)
Полное имя : The.Intern.2015.720p.BluRay.DD5.1.bog3417.mkv
Формат : Matroska
Версия формата : Version 2
Размер файла : 8,44 Гбайт
Продолжительность : 2 ч. 1 м.
Общий поток : 9937 Кбит/сек
Дата кодирования : UTC 2016-01-24 20:28:21
Программа кодирования : mkvmerge v7.9.0 ('Birds') 64bit
Библиотека кодирования : libebml v1.3.1 + libmatroska v1.4.2

Видео
Идентификатор : 1
Формат : AVC
Формат/Информация : Advanced Video Codec
Профиль формата : High@L4.1
Параметр CABAC формата : Да
Параметр ReFrames формата : 9 кадров
Идентификатор кодека : V_MPEG4/ISO/AVC
Продолжительность : 2 ч. 1 м.
Битрейт : 8459 Кбит/сек
Ширина : 1280 пикселей
Высота : 720 пикселей
Соотношение сторон : 16:9
Режим частоты кадров : Постоянный
Частота кадров : 23,976 кадра/сек
Цветовое пространство : YUV
Субдискретизация насыщенности : 4:2:0
Битовая глубина : 8 бит
Тип развёртки : Прогрессивная
Бит/(Пиксели*Кадры) : 0.383
Размер потока : 7,18 Гбайт (85%)
Заголовок : The Intern (2015)
Библиотека кодирования : x264 core 148 r2638kMod 7599210
Настройки программы : cabac=1 / ref=9 / deblock=1:-3:-3 / analyse=0x3:0x133 / me=umh / subme=10 / psy=1 / fade_compensate=0.00 / psy_rd=1.00:0.00 / mixed_ref=1 / me_range=64 / chroma_me=1 / trellis=2 / 8x8dct=1 / cqm=0 / deadzone=21,11 / fast_pskip=0 / chroma_qp_offset=-2 / threads=12 / lookahead_threads=2 / sliced_threads=0 / nr=0 / decimate=0 / interlaced=0 / bluray_compat=0 / constrained_intra=0 / fgo=0 / bframes=7 / b_pyramid=2 / b_adapt=2 / b_bias=0 / direct=3 / weightb=1 / open_gop=0 / weightp=2 / keyint=250 / keyint_min=23 / scenecut=40 / intra_refresh=0 / rc_lookahead=40 / rc=crf / mbtree=0 / crf=17.0000 / qcomp=0.70 / qpmin=0 / qpmax=69 / qpstep=4 / vbv_maxrate=50000 / vbv_bufsize=62500 / crf_max=0.0 / nal_hrd=none / filler=0 / ip_ratio=1.30 / pb_ratio=1.20 / aq=3:0.60
Язык : English
Default : Да
Forced : Нет
Цветовой диапазон : Limited
Основные цвета : BT.709
Характеристики трансфера : BT.709
Коэффициенты матрицы : BT.709

Аудио #1
Идентификатор : 2
Формат : AC-3
Формат/Информация : Audio Coding 3
Расширение режима : CM (complete main)
Параметр Endianness формата : Big
Идентификатор кодека : A_AC3
Продолжительность : 2 ч. 1 м.
Вид битрейта : Постоянный
Битрейт : 640 Кбит/сек
Каналы : 6 каналов
Расположение каналов : Front: L C R, Side: L R, LFE
Частота : 48,0 КГц
Метод сжатия : С потерями
Размер потока : 556 Мбайт (6%)
Язык : Russian
Default : Да
Forced : Нет

Аудио #2
Идентификатор : 3
Формат : AC-3
Формат/Информация : Audio Coding 3
Расширение режима : CM (complete main)
Параметр Endianness формата : Big
Идентификатор кодека : A_AC3
Продолжительность : 2 ч. 1 м.
Вид битрейта : Постоянный
Битрейт : 640 Кбит/сек
Каналы : 6 каналов
Расположение каналов : Front: L C R, Side: L R, LFE
Частота : 48,0 КГц
Метод сжатия : С потерями
Размер потока : 556 Мбайт (6%)
Заголовок : AC3 5.1 @ 640 kbps
Язык : English
Default : Нет
Forced : Нет

Текст #1
Идентификатор : 4
Формат : UTF-8
Идентификатор кодека : S_TEXT/UTF8
Идентификатор кодека/Информация : UTF-8 Plain Text
Язык : Russian
Default : Да
Forced : Нет

Текст #2
Идентификатор : 5
Формат : UTF-8
Идентификатор кодека : S_TEXT/UTF8
Идентификатор кодека/Информация : UTF-8 Plain Text
Язык : Russian
Default : Нет
Forced : Нет

Текст #3
Идентификатор : 6
Формат : UTF-8
Идентификатор кодека : S_TEXT/UTF8
Идентификатор кодека/Информация : UTF-8 Plain Text
Язык : English
Default : Нет
Forced : Нет

Меню
00:00:00.000 : en:00:00:00.000
00:09:31.154 : en:00:09:31.154
00:19:55.361 : en:00:19:55.361
00:30:29.953 : en:00:30:29.953
00:41:18.434 : en:00:41:18.434
00:50:18.682 : en:00:50:18.682
01:00:34.047 : en:01:00:34.047
01:10:19.048 : en:01:10:19.048
01:19:16.460 : en:01:19:16.460
01:30:59.913 : en:01:30:59.913
01:42:48.496 : en:01:42:48.496
01:51:11.206 : en:01:51:11.206
01:56:41.995 : en:01:56:41.995Скриншоты

ЗалилСтрана: США
Продолжительность: 02:01:32
Жанр: мелодрама, комедия
Студия: Waverly Films
О фильме:
Бывший делец, Бен Уитакер устал быть пенсионером, в свои 70 с небольшим лет он полон энергии и жаждет работы. Общение - вот чего не хватает одинокому вдовцу, и он готов к переменам.

Жюль - молодая хозяйка интернет-магазина ищет помощников, которые позволят ей освободить время для семьи и освежить бизнес. Подавая объявление, она не ожидала, что ее сотрудником станет дедушка, мало смыслящий в моде, но полный амбиций и идей. Но она дала ему шанс, тем более, что новый консультант даже не требовал зарплаты. Его опыт, знания и навыки - вот то богатство, которым она сам может поделиться с молодой леди.

Но все-таки надо как-то договориться с крепким старичком, кто же начальник в офисе.



Год выхода: 2015
MrRavage Оценка10 из 10 (3 голосов, самая низкая оценка - 10, самая высокая - 10) КатегорияЗарубежные фильмы Раздают20 Качают0 Сидер замечен12-06-2019 11:19:11 (2 минуты назад) Добавлен24-01-2016 23:51:20 (41 месяц назад) Размер8.44 GB (9057737406 Bytes)Видео: 1280x720 at 23.976 fps, x264@L4.1, ~8459 kbps avg
Режиссер: Нэнси Майерс

Если у вас возникли проблемы с закачкой Стажер / The Intern (2015) BDRip 720p | Лицензия, перейдите по ссылке - там вы найдете решение своей проблемы.

Категория: Зарубежные фильмы

 

Скачать бесплатно Стажер / The Intern (2015) BDRip 720p | Лицензия на пк

 

Информация
Посетители, находящиеся в группе Гости, не могут оставлять комментарии к данной публикации.
 
 
Скачать бесплатно Стажер / The Intern (2015) BDRip 720p | Лицензия на пкCopyright © 2019 .