Скачать бесплатно Аэроплан 2: Продолжение / Airplane II: The Sequel (1982) HDTVRip 1080 от Freeisland на пк




Премьера (мир): 10 декабря 1982, ...
Airplane II: The Sequel
«For the ride of your life... All you need for Christmas are your two front seats!»


Продюсер: Мэл Деллар, Ховард Коч
Перевод: Профессиональный (многоголосый закадровый)
Сценарий: Кен Финклмен
Год выпуска: 1982
Аудио #5: AC3, 384 Kbps, 48.0 KHz, 2 ch (English)


МедиаИнфоGeneral
Complete name : Aeroplan.2.1982.HDTVRip.1080.mkv
Format : Matroska
File size : 5.75 GiB
Duration : 1h 20mn
Overall bit rate : 10.2 Mbps
Encoded date : UTC 2013-06-11 22:47:42
Writing application : mkvmerge v6.1.0 ('Old Devil') built on Mar 2 2013 14:32:37
Writing library : libebml v1.3.0 + libmatroska v1.4.0

Video
ID : 1
Format : AVC
Format/Info : Advanced Video Codec
Format profile : High@L4.1
Format settings, CABAC : Yes
Format settings, ReFrames : 4 frames
Muxing mode : Container profile=Unknown@4.1
Codec ID : V_MPEG4/ISO/AVC
Duration : 1h 20mn
Bit rate : 8 294 Kbps
Width : 1 920 pixels
Height : 1 080 pixels
Display aspect ratio : 16:9
Frame rate : 25.000 fps
Color space : YUV
Chroma subsampling : 4:2:0
Bit depth : 8 bits
Scan type : Progressive
Bits/(Pixel*Frame) : 0.160
Stream size : 4.56 GiB (79%)
Writing library : x264 core 133 r2334 a3ac64b
Encoding settings : cabac=1 / ref=4 / deblock=1:-1:-1 / analyse=0x3:0x133 / me=umh / subme=10 / psy=1 / psy_rd=1.00:0.00 / mixed_ref=1 / me_range=32 / chroma_me=1 / trellis=2 / 8x8dct=1 / cqm=0 / deadzone=21,11 / fast_pskip=0 / chroma_qp_offset=-2 / threads=6 / lookahead_threads=1 / sliced_threads=0 / nr=0 / decimate=1 / interlaced=0 / bluray_compat=0 / constrained_intra=0 / bframes=10 / b_pyramid=2 / b_adapt=2 / b_bias=0 / direct=3 / weightb=1 / open_gop=0 / weightp=2 / keyint=250 / keyint_min=25 / scenecut=40 / intra_refresh=0 / rc_lookahead=50 / rc=2pass / mbtree=0 / bitrate=8294 / ratetol=2.0 / qcomp=1.00 / qpmin=0 / qpmax=51 / qpstep=4 / cplxblur=20.0 / qblur=0.5 / vbv_maxrate=25000 / vbv_bufsize=20000 / nal_hrd=none / ip_ratio=1.40 / pb_ratio=1.30 / aq=1:1.00
Color primaries : BT.709-5, BT.1361, IEC 61966-2-4, SMPTE RP177
Transfer characteristics : BT.709-5, BT.1361
Matrix coefficients : BT.709-5, BT.1361, IEC 61966-2-4 709, SMPTE RP177

Audio #1
ID : 2
Format : AC-3
Format/Info : Audio Coding 3
Mode extension : CM (complete main)
Codec ID : A_AC3
Duration : 1h 20mn
Bit rate mode : Constant
Bit rate : 384 Kbps
Channel(s) : 2 channels
Channel positions : Front: L R
Sampling rate : 48.0 KHz
Bit depth : 16 bits
Stream size : 222 MiB (4%)
Title : MVO - Лицензия
Language : Russian

Audio #2
ID : 3
Format : AC-3
Format/Info : Audio Coding 3
Mode extension : CM (complete main)
Codec ID : A_AC3
Duration : 1h 20mn
Bit rate mode : Constant
Bit rate : 384 Kbps
Channel(s) : 2 channels
Channel positions : Front: L R
Sampling rate : 48.0 KHz
Bit depth : 16 bits
Stream size : 222 MiB (4%)
Title : MVO
Language : Russian

Audio #3
ID : 4
Format : AC-3
Format/Info : Audio Coding 3
Mode extension : CM (complete main)
Codec ID : A_AC3
Duration : 1h 20mn
Bit rate mode : Constant
Bit rate : 384 Kbps
Channel(s) : 2 channels
Channel positions : Front: L R
Sampling rate : 48.0 KHz
Bit depth : 16 bits
Stream size : 222 MiB (4%)
Title : AVO - А. Михалёв
Language : Russian

Audio #4
ID : 5
Format : AC-3
Format/Info : Audio Coding 3
Mode extension : CM (complete main)
Codec ID : A_AC3
Duration : 1h 20mn
Bit rate mode : Constant
Bit rate : 384 Kbps
Channel(s) : 2 channels
Channel positions : Front: L R
Sampling rate : 48.0 KHz
Bit depth : 16 bits
Stream size : 222 MiB (4%)
Title : AVO - В. Горчаков
Language : Russian

Audio #5
ID : 6
Format : AC-3
Format/Info : Audio Coding 3
Mode extension : CM (complete main)
Codec ID : A_AC3
Duration : 1h 20mn
Bit rate mode : Constant
Bit rate : 384 Kbps
Channel(s) : 2 channels
Channel positions : Front: L R
Sampling rate : 48.0 KHz
Bit depth : 16 bits
Stream size : 222 MiB (4%)

Menu
00:00:00.000 : en:00:00:00.000
00:08:24.210 : en:00:08:24.210
00:13:27.200 : en:00:13:27.200
00:19:18.040 : en:00:19:18.040
00:22:05.180 : en:00:22:05.180
00:30:03.160 : en:00:30:03.160
00:37:22.210 : en:00:37:22.210
00:40:34.130 : en:00:40:34.130
00:43:33.180 : en:00:43:33.180
00:49:52.200 : en:00:49:52.200
00:55:36.000 : en:00:55:36.000
01:00:46.040 : en:01:00:46.040
01:04:26.000 : en:01:04:26.000
01:07:38.120 : en:01:07:38.120
01:15:44.080 : en:01:15:44.080

Знаете ли Вы, что...★ Лунный шаттл показанный в фильме, называется Мейфлауэр. Так назывался корабль, на котором англичане, основавшие первое британское поселение в Северной Америке в 1620 году пересекли Атлантический океан. Связь с кораблём «Мейфлауэр» подчеркивается в рекламном слогане: «Мейфлауэр — наш первый лунный шаттл».

★ Психиатрическая клиника из которой сбежал Тэд Страйкер, называется «Госпиталь имени Рональда Рейгана». В то время когда снимался фильм, Рональд Рейган был действующим президентом США.

★ Музыкальная тема которая звучит в эпизоде поломки компьютера на шаттле, позже будет использована в фильме «Миссия невыполнима».


Скриншоты



Художник: Уильям Сэнделл, Розанна Нортон, Роберт Гулд
Композитор: Элмер Бернстайн, Ричард Хазард, Чарльз Фокс, ...
Продолжительность: 01:20:42
Страна: США
В ролях: Роберт Хэйс / Robert Hays (Ted Striker), Джули Хэгерти / Julie Hagerty (Elaine Dickinson), Ллойд Бриджес / Lloyd Bridges (Steven McCroskey), Чад Эверетт / Chad Everett (Simon Kurtz), Питер Грейвз / Peter Graves (Capt. Clarence Oveur), Чак Коннорс / Chuck Connors (The Sarge), Уильям Шетнер / William Shatner (Cdr. Buck Murdock), Рэймонд Бёрр / Raymond Burr (Judge D.C. Simonton)


Сборы в США: $27 150 534
Качество: HDTVRip
Аудио #4: AC3, 384 Kbps, 48.0 KHz, 2 ch (AVO - В. Горчаков)
Аудио #3: AC3, 384 Kbps, 48.0 KHz, 2 ch (AVO - А. Михалёв)
Рейтинг MPAA: Рекомендуется присутствие родителей




Аудио #2: AC3, 384 Kbps, 48.0 KHz, 2 ch (MVO)
Формат: MKV
Режиссер: Кен Финклмен
Зрители: США 9.02 млн , Франция 1.04 млн , Испания 750.5 тыс.
taty75 Оценка7.8 из 10 (4 голосов, самая низкая оценка - 1, самая высокая - 10) КатегорияЗарубежные фильмы Раздают1 Качают0 Сидер замечен11-06-2019 22:19:12 (12 часа назад) Добавлен12-06-2013 11:08:07 (73 месяца назад) Размер5.75 GB (6178804843 Bytes)Видео: 1920x1080 (16:9), 25.000 fps, AVC, 8 294 Kbps

Субтитры: Нет

Аудио кодеk: AC3
Релиз на DVD: 2 марта 2010, «Юниверсал Пикчерс Рус», ...
Монтаж: Тина Хирш, Дэннис Вирклер

Жанр: фантастика, мелодрама, комедия...
Описание: Полет «шаттла», совершающего первый регулярный рейс на Луну, проходит нормально, если не считать того, что все системы корабля отказали, на борту находится безумный террорист, угрожающий взорвать звездолет, и, что самое страшное, у экипажа… абсолютно кончился кофе.

Аэроплан 2: Продолжение
Видео кодек: AVC
Релиз группы: ЗалилОператор: Джозеф Ф. Бирок
Аудио #1: AC3, 384 Kbps, 48.0 KHz, 2 ch (MVO - Лицензия)

Если у вас возникли проблемы с закачкой Аэроплан 2: Продолжение / Airplane II: The Sequel (1982) HDTVRip 1080 от Freeisland, перейдите по ссылке - там вы найдете решение своей проблемы.

Категория: Зарубежные фильмы

 

Скачать бесплатно Аэроплан 2: Продолжение / Airplane II: The Sequel (1982) HDTVRip 1080 от Freeisland на пк

 

Информация
Посетители, находящиеся в группе Гости, не могут оставлять комментарии к данной публикации.
 
 
Скачать бесплатно Аэроплан 2: Продолжение / Airplane II: The Sequel (1982) HDTVRip 1080 от Freeisland на пкCopyright © 2019 .