Скачать бесплатно Сисси / Sissi (1955) BDRip 720p от FREEISLAND на пк






Информация о фильме
В ролях: Роми Шнайдер, Карлхайнц Бём, Магда Шнайдер, Ута Франц, Густав Кнут, Вильма Дегишер, Йозеф Майнрад

delia ОценкаНикто ещё не поставил оценку КатегорияЗарубежные фильмы Раздают0 Качают0 Сидер замечен12-06-2019 0:19:12 (9 часов назад) Добавлен24-03-2012 18:00:28 (88 месяцев назад) Размер4.37 GB (4694423602 Bytes)Кодек: H.264
Режиссер: Эрнст Маришка
Оригинальное название: Sissi
Продолжительность: 1:45:41
Видео: English, 5216 Кбит/сек, 1280*720 (16:9), в 23,976 кадр/сек, AVC (High@L4.1)
Звук:
Russian, 192 Кбит/сек, 48,0 КГц, 16 бит, 2 канала(ов), AC-3(DVD Classic)
Russian, 192 Кбит/сек, 48,0 КГц, 16 бит, 2 канала(ов), AC-3(Film Prestige)
German, 320 Кбит/сек, 48,0 КГц, 16 бит, 2 канала(ов), AC-3 (оригинал)
Релиз от: ЗалилСтудия: Erma-Film
Год выхода: 1955
Субтитры: русские, немецкие (srt)

Общее
Уникальный идентификатор : 193509278188183004017775599369926618675 (0x91948805C35B74619338497613A22E33)
Полное имя : F:BDRipSissi.1.1955.BDRip720p.mkv
Формат : Matroska
Версия формата : Version 2
Размер файла : 4,37 Гбайт
Продолжительность : 1 ч. 45 м.
Общий поток : 5922 Кбит/сек
Дата кодирования : UTC 2011-11-23 03:11:29
Программа кодирования : mkvmerge v5.0.1 ('Es ist Sommer') built on Oct 9 2011 11:55:43
Библиотека кодирования : libebml v1.2.2 + libmatroska v1.3.0

Видео
Идентификатор : 1
Формат : AVC
Формат/Информация : Advanced Video Codec
Профиль формата : High@L4.1
Параметр CABAC формата : Да
Параметр ReFrames формата : 9 кадров
Идентификатор кодека : V_MPEG4/ISO/AVC
Продолжительность : 1 ч. 45 м.
Битрейт : 5216 Кбит/сек
Ширина : 1280 пикселей
Высота : 720 пикселей
Соотношение сторон : 16:9
Частота кадров : 23,976 кадра/сек
Цветовое пространство : YUV
Субдискретизация насыщенности : 4:2:0
Битовая глубина : 8 бит
Тип развёртки : Прогрессивная
Бит/(Пиксели*Кадры) : 0.236
Размер потока : 3,77 Гбайт (86%)
Библиотека кодирования : x264 core 119 r2106 07efeb4
Настройки программы : cabac=1 / ref=9 / deblock=1:-1:-1 / analyse=0x3:0x113 / me=umh / subme=10 / psy=1 / psy_rd=1.00:0.15 / mixed_ref=1 / me_range=32 / chroma_me=1 / trellis=2 / 8x8dct=1 / cqm=0 / deadzone=21,11 / fast_pskip=0 / chroma_qp_offset=-3 / threads=6 / sliced_threads=0 / nr=0 / decimate=1 / interlaced=0 / bluray_compat=0 / constrained_intra=0 / bframes=7 / b_pyramid=2 / b_adapt=2 / b_bias=0 / direct=3 / weightb=1 / open_gop=0 / weightp=2 / keyint=250 / keyint_min=23 / scenecut=40 / intra_refresh=0 / rc_lookahead=50 / rc=2pass / mbtree=1 / bitrate=5216 / ratetol=1.0 / qcomp=0.70 / qpmin=10 / qpmax=55 / qpstep=4 / cplxblur=20.0 / qblur=0.5 / ip_ratio=1.40 / aq=1:1.00
Язык : English

Аудио #1
Идентификатор : 2
Формат : AC-3
Формат/Информация : Audio Coding 3
Расширение режима : CM (complete main)
Идентификатор кодека : A_AC3
Продолжительность : 1 ч. 45 м.
Вид битрейта : Постоянный
Битрейт : 192 Кбит/сек
Каналы : 2 канала
Расположение каналов : Front: L R
Частота : 48,0 КГц
Битовая глубина : 16 бит
Метод сжатия : С потерями
Размер потока : 145 Мбайт (3%)
Язык : Russian

Аудио #2
Идентификатор : 3
Формат : AC-3
Формат/Информация : Audio Coding 3
Расширение режима : CM (complete main)
Идентификатор кодека : A_AC3
Продолжительность : 1 ч. 45 м.
Вид битрейта : Постоянный
Битрейт : 192 Кбит/сек
Каналы : 2 канала
Расположение каналов : Front: L R
Частота : 48,0 КГц
Битовая глубина : 16 бит
Метод сжатия : С потерями
Размер потока : 145 Мбайт (3%)
Язык : Russian

Аудио #3
Идентификатор : 4
Формат : AC-3
Формат/Информация : Audio Coding 3
Расширение режима : CM (complete main)
Идентификатор кодека : A_AC3
Продолжительность : 1 ч. 45 м.
Вид битрейта : Постоянный
Битрейт : 320 Кбит/сек
Каналы : 2 канала
Расположение каналов : Front: L R
Частота : 48,0 КГц
Битовая глубина : 16 бит
Метод сжатия : С потерями
Размер потока : 242 Мбайт (5%)
Язык : German

Текст #1
Идентификатор : 5
Формат : UTF-8
Идентификатор кодека : S_TEXT/UTF8
Идентификатор кодека/Информация : UTF-8 Plain Text
Язык : Russian

Текст #2
Идентификатор : 6
Формат : UTF-8
Идентификатор кодека : S_TEXT/UTF8
Идентификатор кодека/Информация : UTF-8 Plain Text
Язык : German
Скриншоты


Жанр: драма, мелодрама, комедия, история,
Перевод: Профессиональный (многоголосый, закадровый)

Название: Сисси
Качество: BDRip720p
Страна: Австрия
О фильме:
Юная Сисси — дочь герцога Макса Баварского — простая скромная девушка. Она сторонится шумных светских развлечений, бегает по лесам, ухаживает за животными, наслаждается природой и мечтает о любви.
Случайно познакомившись в лесу с красивым молодым офицером, она чувствует, что встретила мужчину своей мечты. Да и офицер не на шутку увлечен девушкой, хотя и считает ее простой крестьянкой. Каково же изумление обоих, когда на балу ему представляют младшую дочь герцога Максимилиана, а ей — австрийского императора Франца-Иосифа.



Если у вас возникли проблемы с закачкой Сисси / Sissi (1955) BDRip 720p от FREEISLAND, перейдите по ссылке - там вы найдете решение своей проблемы.

Категория: Зарубежные фильмы

 

Скачать бесплатно Сисси / Sissi (1955) BDRip 720p от FREEISLAND на пк

 

Информация
Посетители, находящиеся в группе Гости, не могут оставлять комментарии к данной публикации.
 
 
Скачать бесплатно Сисси / Sissi (1955) BDRip 720p от FREEISLAND на пкCopyright © 2019 .