Скачать бесплатно Храброе сердце / Braveheart (1995) BDRip 1080p на пк






Информация о фильме
Выпущено: Icon Entertainment International
Режиссер: Мэл Гибсон
Качество: BDRip (источник: Blu-ray Disc)
Звук: 48 kHz, AC-3, 6 ch, 448 kbps
О фильме: Действие фильма начинается в 1280 году в Шотландии. Это история легендарного национального героя Уильяма Уолласа, посвятившего себя борьбе с англичанами при короле Эдварде Длинноногом.

Он рано лишился отца, погибшего от рук англичан, и его забрал к себе дядя Оргайл, который дал ему хорошее образование в Европе. На родину Уильям возвращается уже взрослым человеком, мечтающем завести семью и жить мирной жизнью.

Но судьба распорядилась иначе. Его невесту убили англичане, и он начал свой крестовый поход за свободу.




Скачать: AlexKa Оценка9.9 из 10 (34 голосов, самая низкая оценка - 8, самая высокая - 10) КатегорияЗарубежные фильмы Раздают11 Качают1 Сидер замечен12-06-2019 8:19:12 (2 минуты назад) Добавлен28-08-2016 10:37:32 (34 месяца назад) Размер7.94 GB (8529101438 Bytes)Оригинальное название: Braveheart
Кодек: x264
В ролях: Мэл Гибсон, Софи Марсо, Патрик МакГуэн, Энгус МакФадьен, Катрин МакКормак, Брендан Глисон, Брайан Кокс, Джерард МакСорли, Мартин Мерфи, Томми Флэнаган

сэмпл

Скриншоты

MIОбщее
Уникальный идентификатор : 190357011144278500723765628028340901553 (0x8F356D4205E7CE48A0D05AAD494396B1)
Полное имя : Braveheart.1995.BDRip.1080p.Rus.mkv
Формат : Matroska
Версия формата : Version 2
Размер файла : 7,94 Гбайт
Продолжительность : 2 ч. 57 м.
Общий поток : 6399 Кбит/сек
Дата кодирования : UTC 2011-09-10 16:43:19
Программа кодирования : mkvmerge v4.0.0 ('The Stars were mine') сборка от Jun 6 2010 16:18:42
Библиотека кодирования : libebml v1.0.0 + libmatroska v1.0.0

Видео
Идентификатор : 1
Формат : AVC
Формат/Информация : Advanced Video Codec
Профиль формата : High@L4.1
Параметр CABAC формата : Да
Параметр ReFrames формата : 5 кадров
Идентификатор кодека : V_MPEG4/ISO/AVC
Продолжительность : 2 ч. 57 м.
Битрейт : 5950 Кбит/сек
Ширина : 1920 пикселей
Высота : 816 пикселей
Соотношение сторон : 2,35:1
Частота кадров : 23,976 кадра/сек
Цветовое пространство : YUV
Субдискретизация насыщенности : 4:2:0
Битовая глубина : 8 бит
Тип развёртки : Прогрессивная
Бит/(Пиксели*Кадры) : 0.158
Размер потока : 7,23 Гбайт (91%)
Библиотека кодирования : x264 core 116 r2074 2641b9e
Настройки программы : cabac=1 / ref=5 / deblock=1:0:0 / analyse=0x3:0x133 / me=umh / subme=10 / psy=1 / psy_rd=1.00:0.10 / mixed_ref=1 / me_range=32 / chroma_me=1 / trellis=2 / 8x8dct=1 / cqm=0 / deadzone=21,11 / fast_pskip=0 / chroma_qp_offset=-3 / threads=12 / sliced_threads=0 / nr=0 / decimate=1 / interlaced=0 / bluray_compat=0 / constrained_intra=0 / bframes=5 / b_pyramid=2 / b_adapt=2 / b_bias=0 / direct=3 / weightb=1 / open_gop=0 / weightp=2 / keyint=250 / keyint_min=23 / scenecut=40 / intra_refresh=0 / rc_lookahead=60 / rc=2pass / mbtree=1 / bitrate=5950 / ratetol=1.0 / qcomp=0.60 / qpmin=0 / qpmax=69 / qpstep=4 / cplxblur=20.0 / qblur=0.5 / ip_ratio=1.40 / aq=1:1.00
Язык : English

Аудио
Идентификатор : 2
Формат : AC-3
Формат/Информация : Audio Coding 3
Расширение режима : CM (complete main)
Идентификатор кодека : A_AC3
Продолжительность : 2 ч. 57 м.
Вид битрейта : Постоянный
Битрейт : 448 Кбит/сек
Каналы : 6 каналов
Расположение каналов : Front: L C R, Side: L R, LFE
Частота : 48,0 КГц
Битовая глубина : 16 бит
Метод сжатия : С потерями
Задержка видео : 23 мс.
Размер потока : 569 Мбайт (7%)
Язык : Russian

Текст #1
Идентификатор : 3
Формат : UTF-8
Идентификатор кодека : S_TEXT/UTF8
Идентификатор кодека/Информация : UTF-8 Plain Text
Язык : Russian

Текст #2
Идентификатор : 4
Формат : UTF-8
Идентификатор кодека : S_TEXT/UTF8
Идентификатор кодека/Информация : UTF-8 Plain Text
Язык : Russian

Текст #3
Идентификатор : 5
Формат : UTF-8
Идентификатор кодека : S_TEXT/UTF8
Идентификатор кодека/Информация : UTF-8 Plain Text
Язык : English

Меню
00:00:00.000 : :Chapter 01
00:07:25.528 : :Chapter 02
00:16:24.441 : :Chapter 03
00:22:00.694 : :Chapter 04
00:34:16.888 : :Chapter 05
00:39:49.678 : :Chapter 06
00:56:04.986 : :Chapter 07
01:00:01.264 : :Chapter 08
01:07:28.044 : :Chapter 09
01:11:51.932 : :Chapter 10
01:19:01.528 : :Chapter 11
01:33:03.202 : :Chapter 12
01:43:44.718 : :Chapter 13
01:53:55.453 : :Chapter 14
01:58:58.464 : :Chapter 15
02:17:15.477 : :Chapter 16
02:24:18.900 : :Chapter 17
02:28:49.795 : :Chapter 18
02:34:12.409 : :Chapter 19
02:36:32.091 : :Chapter 20
02:46:53.878 : :Chapter 21
02:50:43.066 : :Chapter 22 ЗалилПеревод: Дублированный

Год выхода: 1995
Название: Храброе сердце
Видео: 1920x816 (2,35:1), 23.976 fps, 5950 kbps
Жанр: боевик, драма, военный, биография, история
Продолжительность: 02:57:43
Субтитры: Русские (форс,полные), Английские

Если у вас возникли проблемы с закачкой Храброе сердце / Braveheart (1995) BDRip 1080p, перейдите по ссылке - там вы найдете решение своей проблемы.

Категория: Зарубежные фильмы

 

Скачать бесплатно Храброе сердце / Braveheart (1995) BDRip 1080p на пк

 

Информация
Посетители, находящиеся в группе Гости, не могут оставлять комментарии к данной публикации.
 
 
Скачать бесплатно Храброе сердце / Braveheart (1995) BDRip 1080p на пкCopyright © 2019 .