Скачать бесплатно Олекса Довбуш (1959) SATRip от New-Team на пк





DVB
Cубтитры: нет
Об актёрах подробней

Страна: СССР
Режиссер: Виктор Иванов

Не требуется
AVPStudio ОценкаНикто ещё не поставил оценку КатегорияНаши фильмы Раздают1 Качают0 Сидер замечен12-06-2019 1:19:12 (6 часов назад) Добавлен25-02-2018 11:59:28 (16 месяцев назад) Размер1.09 GB (1170540544 Bytes)Видео: 704х528 (4:3), 25 fps, XviD ~ 1868 kbps avg, 0.201 bit/pixel
В ролях:
Афанасий Кочетков, Наталья Наум, Олег Борисов, Григорий Тесля, Николай Муравьёв (II), Семён Лихогоденко, Ярослав Чуперчук, Александр Короткевич, Миша Чернов, Марк Перцовский, Надежда Чередниченко, Дмитрий Милютенко, Ярослав Геляс, Владислав Болеславский, Юрий Лавров...
Исходник:Мы "В КОНТАКТЕ"

Год выпуска: 1959
Перевод:Оригинальная аудиодорожка: русский

Производство: К/ст им. Довженко

Качество видео:Аудио: 48 kHz, Dolby Digital AC3 2.0, 192 kbps

Формат видео: AVI

SATRip
Описание:
XVIII век. Легендарный гуцульский атаман Олекса Довбуш (Афанасий Кочетков), глава опришков (повстанцев), ведет борьбу в Карпатах за свободу своей Родины от польских и венгерских захватчиков. Изо всех боёв Олекса выходит невредимым. Тогда паны решили хитростью заманить атамана в ловушку. Схватили его возлюбленную Маричку, заковали в цепи и посадили в темницу. Переодетый Довбуш явился во вражескую крепость, чтобы взглянуть на Маричку. Тут и схватили атамана. Но налетели гуцулы, отбили Довбуша, освободили Маричку...



Раздача от:
MediaInfo
Общее
Полное имя : Oleksa.Dovbush.1959.SATRip_[New-team]_by_AVP_Studio.avi
Формат : AVI
Формат/Информация : Audio Video Interleave
Размер файла : 1,09 Гбайт
Продолжительность : 1 ч. 15 м.
Общий поток : 2070 Кбит/сек
Программа кодирования : VirtualDubMod 1.5.10.3 | www.virtualdub-fr.org || (build 2550/release)
Библиотека кодирования : VirtualDubMod build 2550/release

Видео
Идентификатор : 0
Формат : MPEG-4 Visual
Профиль формата : Advanced Simple@L5
Настройки формата : BVOP1 / Custom Matrix
Параметр BVOP формата : 1
Параметр QPel формата : Нет
Параметр GMC формата : Без точки перехода
Параметр матрицы формата : Выборочная
Идентификатор кодека : XVID
Идентификатор кодека/Подсказка : XviD
Продолжительность : 1 ч. 15 м.
Битрейт : 1868 Кбит/сек
Ширина : 704 пикселя
Высота : 528 пикселей
Соотношение сторон : 4:3
Частота кадров : 25,000 кадров/сек
Цветовое пространство : YUV
Субдискретизация насыщенности : 4:2:0
Битовая глубина : 8 бит
Тип развёртки : Прогрессивная
Метод сжатия : С потерями
Бит/(Пиксели*Кадры) : 0.201
Размер потока : 1008 Мбайт (90%)
Библиотека кодирования : XviD 73

Аудио
Идентификатор : 1
Формат : AC-3
Формат/Информация : Audio Coding 3
Идентификатор кодека : 2000
Продолжительность : 1 ч. 15 м.
Вид битрейта : Постоянный
Битрейт : 192 Кбит/сек
Каналы : 2 канала
Расположение каналов : Front: L R
Частота : 48,0 КГц
Частота кадров : 31,250 кадров/сек (1536 SPF)
Битовая глубина : 16 бит
Метод сжатия : С потерями
Размер потока : 104 Мбайт (9%)
Выравнивание : Разделение по промежуткам
Продолжительность промежутка : 40 мс. (1,00 видеокадр)
Время предзагрузки промежутка : 500 мс

Скриншоты

ЗалилЖанр: история
Продолжительность: 01:15:25

Если у вас возникли проблемы с закачкой Олекса Довбуш (1959) SATRip от New-Team, перейдите по ссылке - там вы найдете решение своей проблемы.

Категория: Наши фильмы

 

Скачать бесплатно Олекса Довбуш (1959) SATRip от New-Team на пк

 

Информация
Посетители, находящиеся в группе Гости, не могут оставлять комментарии к данной публикации.
 
 
Скачать бесплатно Олекса Довбуш (1959) SATRip от New-Team на пкCopyright © 2019 .