Скачать бесплатно Принесите мне голову пулеметчицы / Bring Me the Head of the Machine Gun Woman (2012) BDRip 1080p от CINEMANIA | L1 на пк






Информация о фильме
Скачать:Жанр: боевик, криминал
Год выхода: 2012
О фильме:
Чего только не увидишь в современных ночных клубах! Но молодому пареньку Сантьяго Фернандесу посчастливилось услышать нечто важное. Работая простым диджеем в одном из ночных клубов города парень становится свидетелем важного разговора владельца клуба и местного авторитета Че Лонганы.
Он беспокоится за свою жизнь, которой грозит большая опасность, и приказывает своим людям разыскать и убить опасную наемную убийцу по прозвищу Пулемётчица. За голову девушки Че назначает вознаграждение в сумме 300 миллионов. Однако, от свидетелей принято избавляться, но Че дает Сантьяго шанс исправить ситуацию. В течении 24 часов парень должен найти Пулемётчицу, иначе лишится жизни...



Субтитры: English
Продолжительность: 01:13:25
Оригинальное название: Bring Me the Head of the Machine Gun Woman
DGEKIGAN ОценкаНикто ещё не поставил оценку КатегорияЗарубежные фильмы Раздают0 Качают1 Сидер замечен24-06-2017 1:19:06 (24 месяца назад) Добавлен24-01-2014 1:36:00 (65 месяцев назад) Размер3.99 GB (4284181775 Bytes)[Вадим Белов]

Сэмпл

Выпущено: Чили
Релиз группы:




NFO Общее
Bring.Me.the.Head.of.the.Machine.Gun.Woman.2012.Blu.Ray.1080p.CINEMANIA.mkv
Формат : Matroska
Версия формата : Version 4 / Version 2
Размер файла : 3,99 Гбайт
Продолжительность : 1 ч. 13 м.
Общий поток : 7780 Кбит/сек
Название фильма : Release Group CINEMANIA
Дата кодирования : UTC 2014-01-23 21:03:13
Программа кодирования : mkvmerge v6.7.0 ('Back to the Ground') 64bit built on Jan 8 2014 15:10:52
Библиотека кодирования : libebml v1.3.0 + libmatroska v1.4.1

Видео
Идентификатор : 1
Формат : AVC
Формат/Информация : Advanced Video Codec
Профиль формата : High@L4.1
Параметр CABAC формата : Да
Параметр ReFrames формата : 4 кадра
Идентификатор кодека : V_MPEG4/ISO/AVC
Продолжительность : 1 ч. 13 м.
Битрейт : 8111 Кбит/сек
Ширина : 1920 пикселей
Высота : 1080 пикселей
Соотношение сторон : 16:9
Режим частоты кадров : Постоянный
Частота кадров : 23,976 кадра/сек
Цветовое пространство : YUV
Субдискретизация насыщенности : 4:2:0
Битовая глубина : 8 бит
Тип развёртки : Прогрессивная
Бит/(Пиксели*Кадры) : 0.131
Размер потока : 3,35 Гбайт (84%)
Заголовок : Release Group CINEMANIA
Библиотека кодирования : x264 core 140 r2377 1ca7bb9
Настройки программы : cabac=1 / ref=4 / deblock=1:-1:-1 / analyse=0x3:0x133 / me=umh / subme=7 / psy=1 / psy_rd=1.00:0.15 / mixed_ref=1 / me_range=16 / chroma_me=1 / trellis=1 / 8x8dct=1 / cqm=0 / deadzone=21,11 / fast_pskip=0 / chroma_qp_offset=-3 / threads=9 / lookahead_threads=1 / sliced_threads=0 / nr=0 / decimate=1 / interlaced=0 / bluray_compat=0 / constrained_intra=0 / bframes=3 / b_pyramid=2 / b_adapt=1 / b_bias=0 / direct=1 / weightb=1 / open_gop=0 / weightp=2 / keyint=250 / keyint_min=23 / scenecut=40 / intra_refresh=0 / rc_lookahead=40 / rc=crf / mbtree=1 / crf=20.0 / qcomp=0.60 / qpmin=0 / qpmax=69 / qpstep=4 / ip_ratio=1.40 / aq=1:1.00
Default : Да
Forced : Нет

Аудио #1
Идентификатор : 2
Формат : AC-3
Формат/Информация : Audio Coding 3
Расширение режима : CM (complete main)
Параметр Endianness формата : Big
Идентификатор кодека : A_AC3
Продолжительность : 1 ч. 13 м.
Вид битрейта : Постоянный
Битрейт : 448 Кбит/сек
Каналы : 6 каналов
Расположение каналов : Front: L C R, Side: L R, LFE
Частота : 48,0 КГц
Битовая глубина : 16 бит
Метод сжатия : С потерями
Размер потока : 235 Мбайт (6%)
Заголовок : В.Белов
Язык : Russian
Default : Да
Forced : Да

Аудио #2
Идентификатор : 3
Формат : AC-3
Формат/Информация : Audio Coding 3
Расширение режима : CM (complete main)
Параметр Endianness формата : Big
Идентификатор кодека : A_AC3
Продолжительность : 1 ч. 13 м.
Вид битрейта : Постоянный
Битрейт : 640 Кбит/сек
Каналы : 6 каналов
Расположение каналов : Front: L C R, Side: L R, LFE
Частота : 48,0 КГц
Битовая глубина : 16 бит
Метод сжатия : С потерями
Размер потока : 336 Мбайт (8%)
Язык : German
Default : Нет
Forced : Нет

Текст
Идентификатор : 4
Формат : UTF-8
Идентификатор кодека : S_TEXT/UTF8
Идентификатор кодека/Информация : UTF-8 Plain Text
Язык : English
Default : Нет
Forced : Нет

ЗалилВидео: 8111 kb/s, 1920x1080
Название: Принесите мне голову пулеметчицы
Озвучивание: Любительское (одноголосое)Режиссер: Эрнесто Диаз Эспиноза
В ролях: Фернанда Урехола, Матиас Овьедо, Жорже Алис, София Гарсия, Алекс Ривера, Фелиппе Авело, Патрисио Пимиэнта, Франсиска Кастильо, Мигель Энджел Де Люка, Даниэль Антивило

Аудио: Russian: AC3, 448 kb/s (6 ch) / German: AC3, 640 kb/s (6 ch)
Формат: MKV
[ENCOUNTERS]
Размер: 3.99 GB
Качество: BDRip 1080p

Если у вас возникли проблемы с закачкой Принесите мне голову пулеметчицы / Bring Me the Head of the Machine Gun Woman (2012) BDRip 1080p от CINEMANIA | L1, перейдите по ссылке - там вы найдете решение своей проблемы.

Категория: Зарубежные фильмы

 

Скачать бесплатно Принесите мне голову пулеметчицы / Bring Me the Head of the Machine Gun Woman (2012) BDRip 1080p от CINEMANIA | L1 на пк

 

Информация
Посетители, находящиеся в группе Гости, не могут оставлять комментарии к данной публикации.
 
 
Скачать бесплатно Принесите мне голову пулеметчицы / Bring Me the Head of the Machine Gun Woman (2012) BDRip 1080p от CINEMANIA | L1 на пкCopyright © 2019 .