Скачать бесплатно Иваново детство (1962) BDRip-AVC | iPad | O на пк






Звук:
1: АAС 2.0 100 kbps - Русский
Страна: СССР
Иваново детство (1962) BDRip-AVC | iPad | O


Студия: Мосфильм

Перевод: не требуется

Качество: BDRip [576p]
Название: Иваново детство
Продолжительность: 1:35:13
В ролях: Николай Бурляев, Валентин Зубков, Евгений Жариков, Степан Крылов, Николай Гринько, Дмитрий Милютенко, Валентина Малявина, Ирина Тарковская, Андрей Кончаловский, Иван Савкин

Видео: 770x576 (4:3) at 23.976 fps, AVC at 2600 kbps
gekka ОценкаНикто ещё не поставил оценку КатегорияНаши фильмы Раздают1 Качают0 Сидер замечен01-06-2019 19:19:12 (2 минуты назад) Добавлен29-05-2014 23:26:01 (61 месяц назад) Размер1.80 GB (1928735438 Bytes)Субтитры: отсутствуют

MI

Recorded date : UTC 1962-04-06 08:00:00
Encoded date : UTC 2014-05-29 19:04:10
Tagged date : UTC 2014-05-29 19:05:41

Vendor : Apple:vendor_id:1962-42667

Video
ID : 1
Format : AVC
Format/Info : Advanced Video Codec
Format profile : High@L4.1
Format settings, CABAC : Yes
Format settings, ReFrames : 9 frames
Codec ID : avc1
Codec ID/Info : Advanced Video Coding
Duration : 1h 35mn
Bit rate : 2 602 Kbps
Maximum bit rate : 11.4 Mbps
Width : 770 pixels
Height : 576 pixels
Display aspect ratio : 4:3
Frame rate mode : Constant
Frame rate : 23.976 fps
Color space : YUV
Chroma subsampling : 4:2:0
Bit depth : 8 bits
Scan type : Progressive
Bits/(Pixel*Frame) : 0.245
Stream size : 1.73 GiB (96%)
Title : IVAN.CHILDHOOD.1962
Language : Russian
Encoded date : UTC 2014-05-29 19:04:10
Tagged date : UTC 2014-05-29 19:04:26

Audio
ID : 2
Format : AAC
Format/Info : Advanced Audio Codec
Format profile : LC
Codec ID : 40
Duration : 1h 35mn
Bit rate mode : Variable
Bit rate : 90.0 Kbps
Maximum bit rate : 112 Kbps
Channel(s) : 2 channels
Channel positions : Front: L R
Sampling rate : 48.0 KHz
Compression mode : Lossy
Stream size : 61.3 MiB (3%)
Title : original
Language : Russian
Encoded date : UTC 2014-05-29 19:02:00
Tagged date : UTC 2014-05-29 19:04:26

Menu
ID : 3
Codec ID : text
Duration : 1h 35mn
Encoded date : UTC 2014-05-29 19:04:45
Tagged date : UTC 2014-05-29 19:04:45
Bit rate mode : CBR

x264
x264 [info]: frame I:628 Avg QP:15.51 size: 61015
x264 [info]: frame P:29728 Avg QP:17.89 size: 26475
x264 [info]: frame B:106621 Avg QP:19.86 size: 9690
x264 [info]: consecutive B-frames: 1.9% 2.0% 6.7% 20.7% 21.1% 38.9% 4.4% 2.5% 1.1% 0.3% 0.1% 0.1% 0.1%
x264 [info]: mb I I16..4: 10.8% 66.4% 22.8%
x264 [info]: mb P I16..4: 0.6% 10.5% 1.7% P16..4: 30.6% 35.3% 14.2% 3.8% 0.6% skip: 2.8%
x264 [info]: mb B I16..4: 0.0% 2.1% 0.2% B16..8: 35.9% 19.8% 3.0% direct: 6.8% skip:32.1% L0:38.7% L1:40.8% BI:20.5%
x264 [info]: 8x8 transform intra:83.3% inter:43.0%
x264 [info]: coded y,uvDC,uvAC intra: 96.2% 0.0% 0.0% inter: 28.3% 0.0% 0.0%
x264 [info]: i16 v,h,dc,p: 21% 5% 21% 54%
x264 [info]: i8 v,h,dc,ddl,ddr,vr,hd,vl,hu: 9% 11% 12% 9% 12% 10% 12% 10% 15%
x264 [info]: i4 v,h,dc,ddl,ddr,vr,hd,vl,hu: 12% 17% 4% 8% 14% 12% 12% 10% 12%
x264 [info]: i8c dc,h,v,p: 64% 36% 0% 0%
x264 [info]: Weighted P-Frames: Y:20.0% UV:0.0%
x264 [info]: ref P L0: 50.6% 11.3% 14.0% 7.0% 5.2% 4.1% 3.4% 2.1% 1.9% 0.5% 0.0%
x264 [info]: ref B L0: 79.8% 7.9% 4.7% 2.4% 1.9% 1.5% 1.3% 0.6%
x264 [info]: ref B L1: 94.4% 5.6%
x264 [info]: kb/s:2602.45
iTunes Tags

XID: Apple:vendor_id:1962-42667

ScreenWriters: Михаил Папава, Владимир Богомолов, Андрей Кончаловский
Producers: Глеб Кузнецов
Director: Андрей Тарковский

Rating: R
Long Deion: Детство 12-летнего Ивана закончилось в тот день, когда у него на глазах фашисты расстреляли мать и сестренку. Отец мальчика погиб на фронте. Оставшись сиротой, Иван уходит в воинскую часть и становится неуловимым разведчиком. Он с риском для жизни добывает для командования бесценные сведения о противнике. Но война есть война...
Deion: Детство 12-летнего Ивана закончилось в тот день, когда у него на глазах фашисты расстреляли мать и сестренку. Отец мальчика погиб на фронте. Оставшись сиротой, Иван уходит в воинскую часть и становится неуловимым разведчиком.



full-size screenshots







ЗалилКодек: H.264
О фильме:
…Детство 12-летнего Ивана закончилось в тот день, когда у него на глазах фашисты расстреляли мать и сестренку. Отец мальчика погиб на фронте. Оставшись сиротой, Иван уходит в воинскую часть и становится неуловимым разведчиком. Он с риском для жизни добывает для командования бесценные сведения о противнике. Но война есть война…




Год выхода: 1962
Оригинальное название: Иваново детство
Режиссер: Андрей Тарковский
Жанр: драма, военный

Если у вас возникли проблемы с закачкой Иваново детство (1962) BDRip-AVC | iPad | O, перейдите по ссылке - там вы найдете решение своей проблемы.

Категория: Наши фильмы

 

Скачать бесплатно Иваново детство (1962) BDRip-AVC | iPad | O на пк

 

Информация
Посетители, находящиеся в группе Гости, не могут оставлять комментарии к данной публикации.
 
 
Скачать бесплатно Иваново детство (1962) BDRip-AVC | iPad | O на пкCopyright © 2019 .